[ Сегодня на трекере фрилич! Идет свободное скачивание без начисления Download ]

Конвой / Автоколонна / Караван / Convoy (1978,боевик, драма, комедия BDRip)

 

Создавать темы 07-Фев-2014 17:38

Страна: США, Великобритания
Жанр: боевик, драма, комедия
Год выпуска: 1978
Продолжительность: 01:51:06-Перевод: профессиональный (Советский дубляж) с вставками двухголосого перевода НТВ+ {максимальный объем дубляжа, эксклюзив}
Режиссер: Сэм Пекинпа / Sam Peckinpah
В ролях:

Крис Кристофферсон (Martin «Rubber Duck» Penwald), Эли МакГроу (Melissa), Эрнест Боргнайн (Sheriff Lyle «Cottonmouth» Wallace), Берт Янг (Bobby 'Love Machine' 'Pig Pen'), Мэдж Синклер (Widow Woman), Френклин Эджайя (Spider Mike), Брайан Дейвис (Chuck Arnoldi), Сеймур Кэссел (Governer Jerry Haskins), Кэсси Йэтс (Violet), Уолтер Келли (Federal Agent Hamilton), Джексон Кэйн (Big Nasty), Билли Хьюз (Pack Rat)
Дублёры: Валерий Рыжаков (Martin «Rubber Duck» Penwald), Ольга Гаспарова (Melissa), Армен Джигарханян (Sheriff Lyle «Cottonmouth» Wallace), Рудольф Панков (Bobby 'Love Machine' 'Pig Pen'), Нелли Витепаш (Widow Woman), Владимир Басов мл. (Spider Mike), Тимофей Спивак (Chuck Arnoldi), Вадим Андреев, Владимир Прокофьев, Всеволод Ларионов (Governer Jerry Haskins), Олег Мокшанцев (Officer Bob Bookman), Сергей Малишевский (Chief Stacey Love)-Описание: Мощный конвой грузовиков, вздымающих тучи пыли, движется к границе штата юго-западной части Америки.
Массивную коллекцию машин всех размеров и очертаний ведет «Резиновый утенок», легендарный водитель-дальнобойщик, который собрал армию единомышленников, протестуя против полицейской коррупции, государственных законов и теневой политики.-
MPAA: PG - Рекомендуется присутствие родителей-Качество: BDRip
Контейнер: AVI
Видео: XviD, 720x304 (2.35:1), 1669 kbps, 23,976 fps, 0,318 bpp
Аудио: AC3 / 2.0 / 48 kHz / 192 kbps / 16 bit-

Скриншоты

Media Info

General
Complete name : D:my.ripConvoy.1978.BDRip.Dub.by.Дядя_Лёша.avi
Format : AVI
Format/Info : Audio Video Interleave
File size : 1.45 GiB
Duration : 1h 51mn
Overall bit rate : 1 871 Kbps
Writing application : VirtualDubMod 1.5.10.3 | www.virtualdub-fr.org || (build 2550/release)
Writing library : VirtualDubMod build 2550/release
Video
ID : 0
Format : MPEG-4 Visual
Format profile : Advanced [email protected]
Format settings, BVOP : 1
Format settings, QPel : No
Format settings, GMC : No warppoints
Format settings, Matrix : Custom
Codec ID : XVID
Codec ID/Hint : XviD
Duration : 1h 51mn
Bit rate : 1 670 Kbps
Width : 720 pixels
Height : 304 pixels
Display aspect ratio : 2.35:1
Frame rate : 23.976 fps
Color space : YUV
Chroma subsampling : 4:2:0
Bit depth : 8 bits
Scan type : Progressive
Compression mode : Lossy
Bits/(Pixel*Frame) : 0.318
Stream size : 1.30 GiB (89%)
Writing library : XviD 73
Audio
ID : 1
Format : AC-3
Format/Info : Audio Coding 3
Mode extension : CM (complete main)
Format settings, Endianness : Big
Codec ID : 2000
Duration : 1h 51mn
Bit rate mode : Constant
Bit rate : 192 Kbps
Channel count : 2 channels
Channel positions : Front: L R
Sampling rate : 48.0 KHz
Bit depth : 16 bits
Compression mode : Lossy
Stream size : 153 MiB (10%)
Alignment : Split accross interleaves
Interleave, duration : 42 ms (1.00 video frame)
Interleave, preload duration : 500 ms
Яндекс.Метрика
Рейтинг@Mail.ru