Веном / Venom (Рубен Фляйшер) [2018 г., ужасы, фантастика, боевик, триллер, BDRip 1080p] [ENG]

 

Создавать темы 28-Ноя-2018 13:13

Веном / Venom- Год выхода: 2018
Страна: США
Жанр: ужасы, фантастика, боевик, триллер
Продолжительность: 01:52:06
Перевод: Отсутствует
Субтитры: Английские-Режиссер: Рубен Фляйшер-В ролях: Том Харди, Мишель Уильямс, Марчелла Браджио, Вуди Харрельсон, Дженни Слейт, Риз Ахмед, Мак Брандт, Рон Сепас Джонс, Мишель Ли, Мелора Уолтерс-О фильме: Что если в один прекрасный день в тебя вселяется существо-симбиот, которое наделяет тебя сверхчеловеческими способностями? Вот только Веном — симбиот совсем недобрый, и договориться с ним невозможно. Хотя нужно ли договариваться?.. Ведь в какой-то момент ты понимаешь, что быть плохим вовсе не так уж и плохо. Так даже веселее. В мире и так слишком много супергероев! Мы — Веном!- -Качество: BDRip 1080p
Формат: MKV
Видео кодек: x.264
Аудио кодек: AC3
Видео: AVC, 1920x800 (2.40:1), 23.976 fps, 11.6 Mb/s
Аудио: AC-3, 48.0 kHz, 6 ch, 640 kb/s-Сэмпл-Рекламы нет-

MediaInfo

General
Unique ID                   : 145467586966750225570949069279796203067 (0x6D7009C55BC746D11C9B57EC46C50E3B)
Complete name               : Venom.2018.BluRay.1080p.DD5.1.x264-MTeam.mkv
Format                      : Matroska
Format version              : Version 4 / Version 2
File size                   : 9.64 GiB
Duration                    : 1 h 52 min
Overall bit rate            : 12.3 Mb/s
Encoded date                : UTC 2018-12-05 13:46:51
Writing application         : mkvmerge v29.0.0 ('Like It Or Not') 64-bit
Writing library             : libebml v1.3.6 + libmatroska v1.4.9
Video
ID                          : 1
Format                      : AVC
Format/Info                 : Advanced Video Codec
Format profile              : [email protected]
Format settings             : CABAC / 5 Ref Frames
Format settings, CABAC      : Yes
Format settings, ReFrames   : 5 frames
Codec ID                    : V_MPEG4/ISO/AVC
Duration                    : 1 h 52 min
Bit rate                    : 11.6 Mb/s
Width                       : 1 920 pixels
Height                      : 800 pixels
Display aspect ratio        : 2.40:1
Frame rate mode             : Constant
Frame rate                  : 23.976 (24000/1001) FPS
Color space                 : YUV
Chroma subsampling          : 4:2:0
Bit depth                   : 8 bits
Scan type                   : Progressive
Bits/(Pixel*Frame)          : 0.316
Stream size                 : 9.12 GiB (95%)
Writing library             : x264 core 157 r2935 545de2f
Encoding settings           : cabac=1 / ref=5 / deblock=1:-3:-3 / analyse=0x3:0x133 / me=umh / subme=10 / psy=1 / psy_rd=1.05:0.00 / mixed_ref=1 / me_range=32 / chroma_me=1 / trellis=2 / 8x8dct=1 / cqm=0 / deadzone=21,11 / fast_pskip=0 / chroma_qp_offset=-2 / threads=12 / lookahead_threads=2 / sliced_threads=0 / nr=0 / decimate=0 / interlaced=0 / bluray_compat=0 / constrained_intra=0 / bframes=8 / b_pyramid=2 / b_adapt=2 / b_bias=0 / direct=3 / weightb=1 / open_gop=0 / weightp=2 / keyint=250 / keyint_min=24 / scenecut=40 / intra_refresh=0 / rc_lookahead=250 / rc=crf / mbtree=0 / crf=15.0 / qcomp=0.60 / qpmin=0 / qpmax=69 / qpstep=4 / vbv_maxrate=62500 / vbv_bufsize=78125 / crf_max=0.0 / nal_hrd=none / filler=0 / ip_ratio=1.30 / pb_ratio=1.20 / aq=3:0.80
Language                    : English
Default                     : Yes
Forced                      : No
Color range                 : Limited
Color primaries             : BT.709
Matrix coefficients         : BT.709
Audio
ID                          : 2
Format                      : AC-3
Format/Info                 : Audio Coding 3
Codec ID                    : A_AC3
Duration                    : 1 h 52 min
Bit rate mode               : Constant
Bit rate                    : 640 kb/s
Channel(s)                  : 6 channels
Channel positions           : Front: L C R, Side: L R, LFE
Sampling rate               : 48.0 kHz
Frame rate                  : 31.250 FPS (1536 SPF)
Bit depth                   : 16 bits
Compression mode            : Lossy
Stream size                 : 513 MiB (5%)
Language                    : English
Service kind                : Complete Main
Default                     : Yes
Forced                      : No
Text
ID                          : 3
Format                      : PGS
Muxing mode                 : zlib
Codec ID                    : S_HDMV/PGS
Codec ID/Info               : Picture based subtitle format used on BDs/HD-DVDs
Duration                    : 1 h 34 min
Bit rate                    : 45.8 kb/s
Count of elements           : 2765
Stream size                 : 31.1 MiB (0%)
Language                    : English
Default                     : Yes
Forced                      : No
Menu
00:04:59.299                : :Chapter 01
00:09:59.599                : :Chapter 02
00:14:59.899                : :Chapter 03
00:19:59.198                : :Chapter 04
00:25:00.499                : :Chapter 05
00:29:59.798                : :Chapter 06
00:35:00.098                : :Chapter 07
00:39:59.397                : :Chapter 08
00:44:59.697                : :Chapter 09
00:50:00.998                : :Chapter 10
00:55:00.297                : :Chapter 11
00:59:59.596                : :Chapter 12
01:06:15.972                : :Chapter 13
01:14:17.453                : :Chapter 14
01:24:35.070                : :Chapter 15
01:33:32.607                : :Chapter 16
01:40:39.033                : :Chapter 17
01:47:17.431                : :Chapter 18

Трейлер

-
- - -


Последний раз редактировалось: Theseus (2018-12-05 18:41), всего редактировалось 1 раз

Создавать темы 28-Ноя-2018 13:19 (спустя 5 минут)

В раздаче зарубежный оригинал, качество скорее всего - WEB-DL , корейских сабов нет, без рекламы .

Создавать темы 05-Дек-2018 18:41 (спустя 7 дней)

05.12.18 Замена на BDRip
Рейтинг@Mail.ru