О любви (Владимир Бортко) [2017, мелодрама, BDRip-AVC от ExKinoRay | Лицензия]

 

Создавать темы 17-Ноя-2018 18:38

О любви---Информация о фильме- Оригинальное название: О любви
Год выхода: 2017
Жанр: мелодрама
Режиссер: Владимир Бортко
В ролях: Анна Чиповская, Алексей Чадов, Мария Миронова, Александр Лыков, Дмитрий Певцов, Светлана Хомич, Ольга Павлюкова, Клавдия Белова-О фильме: Петербурженка Нина — студентка, жена молодого красавца-профессора, который знает китайский язык и учения Поднебесной, похоже, лучше, чем окружающую российскую действительность. Нина убеждена, что супружеская верность и смирение и есть любовь. Но всё меняется, когда в её жизни появляется банкир Сергей…--Выпущено: Россия / Studio 2-B-2 entertainment
Продолжительность: 01:34:54
Перевод: Не требуется (русский) | Лицензия-Файл-Формат: MKV
Качество: BDRip-AVC
Видео: AVC, 1024x554 (1.85:1), 2780 kbps, 24,000 fps, 0,204 bpp
Аудио: 48 kHz, AC3, 5.1, 448 Kbps | RUS |-Навигация по главам: есть-

MI

-General
Unique ID : 196657791516324184000320587830150848024 (0x93F2E9B6F306A5CFA0D13E5FFE745E18)
Complete name : D:O.sekse.2017.BDRip.AVC.ExKinoRay.mkv
Format : Matroska
Format version : Version 2
File size : 2.14 GiB
Duration : 1 h 34 min
Overall bit rate : 3 224 kb/s
Movie name : О любви (2017) from ExKinoRay
Encoded date : UTC 2018-11-16 16:27:01
Writing application : mkvmerge v5.6.0 ('Kenya Kane') built on May 27 2012 16:44:04
Writing library : libebml v1.2.3 + libmatroska v1.3.0
Video
ID : 1
Format : AVC
Format/Info : Advanced Video Codec
Format profile : [email protected]
Format settings, CABAC : Yes
Format settings, ReFrames : 12 frames
Codec ID : V_MPEG4/ISO/AVC
Duration : 1 h 34 min
Bit rate : 2 780 kb/s
Width : 1 024 pixels
Height : 554 pixels
Display aspect ratio : 1.85:1
Frame rate mode : Constant
Frame rate : 24.000 FPS
Color space : YUV
Chroma subsampling : 4:2:0
Bit depth : 8 bits
Scan type : Progressive
Bits/(Pixel*Frame) : 0.204
Stream size : 1.80 GiB (84%)
Title : Enigma
Writing library : x264 core 152 r2851 ba24899
Encoding settings : cabac=1 / ref=12 / deblock=1:-2:-2 / analyse=0x3:0x113 / me=umh / subme=10 / psy=1 / psy_rd=1.03:0.10 / mixed_ref=1 / me_range=32 / chroma_me=1 / trellis=2 / 8x8dct=1 / cqm=0 / deadzone=21,11 / fast_pskip=0 / chroma_qp_offset=-3 / threads=12 / lookahead_threads=3 / sliced_threads=0 / nr=0 / decimate=0 / interlaced=0 / bluray_compat=0 / constrained_intra=0 / bframes=10 / b_pyramid=2 / b_adapt=2 / b_bias=0 / direct=3 / weightb=1 / open_gop=0 / weightp=2 / keyint=240 / keyint_min=24 / scenecut=40 / intra_refresh=0 / rc=2pass / mbtree=0 / bitrate=2780 / ratetol=1.0 / qcomp=0.60 / qpmin=0 / qpmax=51 / qpstep=4 / cplxblur=20.0 / qblur=0.5 / ip_ratio=1.40 / pb_ratio=1.30 / aq=2:0.90
Language : English
Default : Yes
Forced : No
Color range : Limited
Color primaries : BT.709
Transfer characteristics : BT.709
Matrix coefficients : BT.709
Audio
ID : 2
Format : AC-3
Format/Info : Audio Coding 3
Mode extension : CM (complete main)
Format settings, Endianness : Big
Codec ID : A_AC3
Duration : 1 h 34 min
Bit rate mode : Constant
Bit rate : 448 kb/s
Channel(s) : 6 channels
Channel positions : Front: L C R, Side: L R, LFE
Sampling rate : 48.0 kHz
Frame rate : 31.250 FPS (1536 spf)
Compression mode : Lossy
Stream size : 304 MiB (14%)
Title : BD GER
Language : Russian
Default : Yes
Forced : No
Menu
00:00:00.000 : :Chapter 01
00:02:12.125 : :Chapter 02
00:10:15.916 : :Chapter 03
00:19:23.666 : :Chapter 04
00:29:37.708 : :Chapter 05
00:40:01.208 : :Chapter 06
00:49:51.500 : :Chapter 07
00:57:34.041 : :Chapter 08
01:06:32.250 : :Chapter 09
01:13:10.125 : :Chapter 10
01:21:19.208 : :Chapter 11
01:31:52.458 : :Chapter 12
01:34:54.041 : :Chapter 13-
-

Скриншоты

--
-
Рейтинг@Mail.ru