Queen: История альбома "News of the World" / Queen: The story of "News of the World" (2017) HDTV [H.264/1080i-LQ]

 

Создавать темы 14-Ноя-2018 18:27

Queen: История альбома "News of the World" / Queen: The story of "News of the World"- Производство: США
Жанр: Документальный, биография, музыка
Режиссер: Кристофер Белг-Документальный фильм рассказывает о том периоде жизни легендарных участников группы Queen — Фредди Меркьюри, Брайана Мэя, Роджера Тейлора и Джона Дикона — когда они записывали свой шестой альбом News of the World и собирались с ним в революционное турне по Северной Америке.:
Продолжительность: 00:58:50
Качество видео: HDTV
Перевод: Двуголосый закадровый, профессиональный
Субтитры: отсутствуют
Видео: AVC/H.264, 1920x1080, ~10,9 Mbps
Аудио#1: AC3, 6 ch, 384 Kbps | Русский
Аудио#2: MP2, 2 ch, 192 Kbps | Русский

Mediainfo:

Общее
Идентификатор : 1 (0x1)
Полное имя : F:\КИНО\Первый канал HD - _QUEEN.ts
Формат : MPEG-TS
Размер файла : 4,98 Гбайт
Продолжительность : 58 м. 51 с.
Режим общего битрейта : Переменный
Общий поток : 12,1 Мбит/сек
Видео
Идентификатор : 205 (0xCD)
Идентификатор меню : 20105 (0x4E89)
Формат : AVC
Формат/Информация : Advanced Video Codec
Профиль формата : [email protected]
Настройки формата : CABAC / 4 Ref Frames
Параметр CABAC формата : Да
Параметр RefFrames формата : 4 кадра
Идентификатор кодека : 27
Продолжительность : 58 м. 50 с.
Битрейт : 10,9 Мбит/сек
Ширина : 1920 пикселей
Высота : 1080 пикселей
Соотношение сторон : 16:9
Частота кадров : 25,000 кадров/сек
Стандарт вещания : Component
Цветовое пространство : YUV
Субдискретизация насыщенности : 4:2:0
Битовая глубина : 8 бит
Тип развёртки : Чересстрочная
Метод сохранения типа развёртки : Раздельные поля
Порядок развёртки : Верхнее поле первое
Бит/(Пиксели*Кадры) : 0.211
Размер потока : 4,49 Гбайт (90%)
Цветовой диапазон : Limited
Основные цвета : BT.709
Характеристики трансфера : BT.709
Коэффициенты матрицы : BT.709
Аудио #1
Идентификатор : 305 (0x131)
Идентификатор меню : 20105 (0x4E89)
Формат : AC-3
Формат/Информация : Audio Coding 3
Коммерческое название : Dolby Digital
Идентификатор кодека : 6
Продолжительность : 58 м. 50 с.
Вид битрейта : Постоянный
Битрейт : 384 Кбит/сек
Каналы : 6 каналов
Channel layout : L R C LFE Ls Rs
Частота : 48,0 КГц
Частота кадров : 31,250 кадров/сек (1536 SPF)
Битовая глубина : 16 бит
Метод сжатия : С потерями
Задержка видео : -80 мс.
Размер потока : 162 Мбайт (3%)
Язык : Russian
ServiceKind/String : Complete Main
Аудио #2
Идентификатор : 306 (0x132)
Идентификатор меню : 20105 (0x4E89)
Формат : MPEG Audio
Версия формата : Version 1
Профиль формата : Layer 2
Идентификатор кодека : 3
Продолжительность : 58 м. 51 с.
Вид битрейта : Постоянный
Битрейт : 192 Кбит/сек
Каналы : 2 канала
Частота : 48,0 КГц
Частота кадров : 41,667 кадра/сек (1152 SPF)
Метод сжатия : С потерями
Задержка видео : -80 мс.
Размер потока : 80,8 Мбайт (2%)
Язык : Russian
Текст
Идентификатор : 307 (0x133)-888
Идентификатор меню : 20105 (0x4E89)
Формат : Teletext Subtitle
Язык : Russian
Язык, дополнительно : For hearing impaired people
Прочее
Идентификатор : 307 (0x133)-100
Идентификатор меню : 20105 (0x4E89)
Формат : Teletext
Язык : Russian

Интересно:

Альбом, словно в пику господствовавшему тогда панк-движению (в соседней студии группа Sex Pistols записывала свой дебютный альбом), звучит тщеславно и по-декадентски; его выход окончательно разделил мнения фанатов и критиков.
News of the World был продан в количестве десяти миллионов копий. Его слава главным образом обеспечивается двумя первыми композициями: «We Will Rock You» и «We Are the Champions». Последняя со временем стала спортивным гимном, хотя изначально писалась совсем не для этого. «We Will Rock You» благодаря простой, но очень эффектной перкуссии и запоминающемуся припеву перепевалась и переделывалась бесчисленное множество раз, став чем-то вроде торговой марки. Правда, в большинстве случаев от всего текста остаётся лишь один припев, но песня легко угадывается даже без слов.
На концертах Queen эти две композиции всегда идут «рука об руку», завершая каждый концерт группы (кроме тура Magic Tour, где между ними исполнялась песня «Friends Will Be Friends»).
Скриншоты:
Рейтинг@Mail.ru