Чанаккале 1915 / Canakkale 1915 (2012) DVDRip

 

Создавать темы 07-Фев-2014 05:50

-Чанаккале 1915 / Canakkale 1915 (2012) DVDRip- Год выпуска: 2012
Жанр: Военный, Драма
Описание фильма:
Османская империя подходит к началу 20-го века, с тяжелыми потерями в результате балканской и русских войн. Балканы захвачены, население эмигрирует в Анадолу, в османской армии тяжелые потери. Вспыхнувшая в 1914 г. война, и вступление в нее Империи в составе союзных государств стало причиной всеобщей мобилизации в Анадолу. Империя потерпевшая сокрушительные поражения в прежних войнах пытается всеми силами объединить усилия, защищая свои земли. В армию попадают также молодые и талантливые, получившие образование солдаты добровольцы. Среди них Вели, и Мехмет Али. В течении короткого времени они направляются в Маидос (Эджеабат) и с небывалым мужеством участвуют в сражениях против британских сил при Чонкбаире вступив в только сформированный 19-й дивизион под командованием Мустафы Кемаля. В это время, ответственный за оборону пролива Чанаккалы Джеват-паша, в ожидании подхода подкрепления, определяет размещение минных заграждений в проливе. Внушительный флот англичан и французов вступает в пролив 8 марта 1915 г. с намерением произвести высадку, однако преодолеть сопротивление обороняющихся будет не так легко, как они предполагают. Попытки атак с моря и высадки на суши сталкиваются с отчаянным и мужественным сопротивлением защитников.
Режиссер: Есим Сезгин
Актеры: Баран Акбулут, Озгур Акдемир, Риза Акин, Бюлент Алкис, Уфук Байрактар, Али Эрсан Дуру, Серкан Эрсан, Корай Кадырага, Мерт Карабулут, Фатима Каранфил, Эмре Озджан
Продолжительность: 02:07:02
Качество видео: DVDRip
Перевод: Одноголосый закадровый
Автор перевода: iDimo

Видеокодек: DivX 5
Битрейт видео: ~2157 kb/s
Размер кадра: 720x400
Аудиокодек: AC3
Битрейт аудио: 192.00 kbps avg (2 канала, стерео)
Сэмпл: Ссылка

MediaInfo

Чанаккале 1915\Chanakkale.1915.2012.DivX.DVDRip.alf62.avi
Format : AVI
Format/Info : Audio Video Interleave
Format profile : OpenDML
File size : 2.10 GiB
Duration : 2h 7mn
Overall bit rate : 2 361 Kbps
Writing application : VirtualDubMod 1.5.10.3 | (build 2550/release)
Writing library : VirtualDubMod build 2550/release
Video
ID : 0
Format : MPEG-4 Visual
Format profile : Advanced [email protected]
Format settings, BVOP : 2
Format settings, QPel : No
Format settings, GMC : No warppoints
Format settings, Matrix : Default (MPEG)
Codec ID : DX50
Codec ID/Hint : DivX 5
Duration : 2h 7mn
Bit rate : 2 157 Kbps
Width : 720 pixels
Height : 400 pixels
Display aspect ratio : 16:9
Frame rate : 25.000 fps
Color space : YUV
Chroma subsampling : 4:2:0
Bit depth : 8 bits
Scan type : Progressive
Compression mode : Lossy
Bits/(Pixel*Frame) : 0.300
Stream size : 1.91 GiB (91%)
Writing library : XviD 73
Audio
ID : 1
Format : AC-3
Format/Info : Audio Coding 3
Mode extension : CM (complete main)
Format settings, Endianness : Big
Codec ID : 2000
Duration : 2h 7mn
Bit rate mode : Constant
Bit rate : 192 Kbps
Channel count : 2 channels
Channel positions : Front: L R
Sampling rate : 48.0 KHz
Bit depth : 16 bits
Compression mode : Lossy
Stream size : 174 MiB (8%)
Alignment : Split accross interleaves
Interleave, duration : 40 ms (1.00 video frame)
Interleave, preload duration : 500 ms

Особая благодарность

Доп. информация: DVDRip by alf62
Большое СПАСИБО за работу над сериалом целому коллективу:
- за озвучивание: iDimo;
- за финансовое содействие по озвучиванию: alinto, edus67, jasenka, Der eiserne Wolf, Arias, Drenkens, Магда, $Shorox, alf62, gerald.shteinberg, babek555;
- за наложение чистого голоса на оригинальную дорогу: Нордер;
- за первоисточник DVD: alinto
Скриншоты
--Время раздачи: 24/7 (круглосуточно)
Яндекс.Метрика
Рейтинг@Mail.ru