Альфа / Alpha (Альберт Хьюз) [2018 г., Драма, приключения, семейный, WEB-DL 720p] [Android] | MVO [iTunes]

 

Создавать темы 28-Окт-2018 19:52

Альфа / Alpha- Год выхода: 2018
Страна: США
Жанр: Драма, приключения, семейный
Продолжительность: 01:36:30
Перевод: Профессиональный (многоголосый, закадровый) | [iTunes]
Субтитры: Русские-Режиссер: Альберт Хьюз-В ролях: Коди Смит-МакФи, Наташа Мальте, Леонор Варела, Йоуханнес Хёйкьюр Йоуханнессон, Йенс Хультен, Мерседес Де Ла Зерда, Прия Раджаратнам, Спенсер Богерт, Патрик Флэнеган, Майкл Круз Даль-О фильме: 20 000 лет назад Земля была холодным и неуютным местом, в котором смерть подстерегала человека на каждом шагу, а жизнь зависела от того, удалось загнать добычу или нет. Молодой охотник из племени, которое по уровню жизни и культуры было одним из самых развитых на планете, оказывается один на один с враждебным миром, полным смертельных опасностей. Ему предстоит взглянуть в лицо своим страхам и найти дорогу домой. И, возможно, от исхода его путешествия зависит судьба всего человечества.- -Качество: WEB-DL 720p
Формат: MP4
Видео кодек: x.264
Аудио кодек: HE-AAC
Видео: AVC, 1280x534 (2.40:1), 23.976 fps, 1022 Kbps
Аудио: HE-AAC / LC, 48.0 KHz, 2 ch, 96 Kbps-Сэмпл-

MediaInfo

Общее
Полное имя                               : Alpha.2018.WEB-DL.720p.mp4
Формат                                   : MPEG-4
Профиль формата                          : Base Media
Идентификатор кодека                     : isom (isom/iso2/avc1/mp41)
Размер файла                             : 776 Мбайт
Продолжительность                        : 1 ч. 36 м.
Общий поток                              : 1124 Кбит/сек
HDVideo                                  : Yes
Видео
Идентификатор                            : 1
Формат                                   : AVC
Формат/Информация                        : Advanced Video Codec
Профиль формата                          : [email protected]
Настройки формата                        : CABAC / 5 Ref Frames
Параметр CABAC формата                   : Да
Параметр RefFrames формата               : 5 кадров
Идентификатор кодека                     : avc1
Идентификатор кодека/Информация          : Advanced Video Coding
Продолжительность                        : 1 ч. 36 м.
Битрейт                                  : 1022 Кбит/сек
Ширина                                   : 1280 пикселей
Высота                                   : 534 пикселя
Соотношение сторон                       : 2,40:1
Режим частоты кадров                     : Переменный
Частота кадров                           : 23,976 (24000/1001) кадра/сек
Минимальная частота кадров               : 23,810 кадра/сек
Максимальная частота кадров              : 24,390 кадра/сек
Цветовое пространство                    : YUV
Субдискретизация насыщенности            : 4:2:0
Битовая глубина                          : 8 бит
Тип развёртки                            : Прогрессивная
Бит/(Пиксели*Кадры)                      : 0.062
Размер потока                            : 705 Мбайт (91%)
Библиотека кодирования                   : x264 core 155 r2901 7d0ff22
Настройки программы                      : cabac=1 / ref=5 / deblock=1:-1:-1 / analyse=0x3:0x113 / me=umh / subme=9 / psy=1 / psy_rd=0.00:0.00 / mixed_ref=1 / me_range=32 / chroma_me=1 / trellis=1 / 8x8dct=1 / cqm=0 / deadzone=21,11 / fast_pskip=0 / chroma_qp_offset=0 / threads=12 / lookahead_threads=1 / sliced_threads=0 / nr=0 / decimate=1 / interlaced=0 / bluray_compat=0 / constrained_intra=0 / bframes=3 / b_pyramid=2 / b_adapt=2 / b_bias=0 / direct=3 / weightb=1 / open_gop=0 / weightp=2 / keyint=240 / keyint_min=23 / scenecut=40 / intra_refresh=0 / rc_lookahead=40 / rc=2pass / mbtree=1 / bitrate=1022 / ratetol=1.0 / qcomp=0.60 / qpmin=0 / qpmax=69 / qpstep=4 / cplxblur=20.0 / qblur=0.5 / vbv_maxrate=62500 / vbv_bufsize=78125 / nal_hrd=none / filler=0 / ip_ratio=1.40 / aq=1:1.00
Аудио
Идентификатор                            : 2
Формат                                   : AAC
Формат/Информация                        : Advanced Audio Codec
Профиль формата                          : HE-AAC / LC
Настройки формата                        : Implicit
Идентификатор кодека                     : mp4a-40-2
Продолжительность                        : 1 ч. 36 м.
Вид битрейта                             : Постоянный
Битрейт                                  : 96,0 Кбит/сек
Каналы                                   : 2 канала
Расположение каналов                     : Front: L R
Частота                                  : 48,0 КГц / 24,0 КГц
Частота кадров                           : 23,438 кадра/сек (1024 SPF)
Метод сжатия                             : С потерями
Размер потока                            : 66,3 Мбайт (9%)
Язык                                     : Russian
Default                                  : Да
AlternateGroup/String                    : 1
Текст
Идентификатор                            : 3
Формат                                   : Timed Text
Режим смешивания                         : sbtl
Идентификатор кодека                     : tx3g
Размер потока                            : 2,00 байт (0%)
Язык                                     : Russian
Default                                  : Да
Forced                                   : Нет
AlternateGroup/String                    : 3

Трейлер

-- - -
Рейтинг@Mail.ru