Суперсемейка 2 / Incredibles 2 (Брэд Бёрд) [2018 г., мультфильм, фантастика, комедия, приключения, семейный, WEB-DL 1080p] [HEVC] [Ukr, Eng] [Без рекламы]

 

Создавать темы 24-Окт-2018 21:14

Суперсемейка 2 / Incredibles 2 -Год выхода: 2018
Страна: США
Жанр: мультфильм, фантастика, комедия, приключения, семейный
Продолжительность: 01:57:49
Перевод: Украинский дубляж [Чистый звук]
Субтитры: Английские-Режиссер: Брэд Бёрд-В ролях: Крэйг Т. Нельсон, Холли Хантер, Сара Вауэлл, Хак Милнер, Кэтрин Кинер, Илай Фучиле, Боб Оденкёрк, Сэмюэл Л. Джексон, Майкл Бёрд, София Буш-О фильме: После событий первой части суперсемейка пользуется повышенным вниманием со стороны журналистов. Неожиданно оказалось, что обаятельная Миссис Исключительная гораздо лучше смотрится на экране телевизора, чем её муж. Мистеру Исключительному все чаще приходится сидеть дома и приглядывать за детьми, у каждого из которых есть свои причины быть недовольным собственными суперспособностями. Однако семейным проблемам предстоит отступить на второй план, когда окажется, что спокойствию Суперсемейки угрожает новый могущественный враг.- -Качество: WEB-DL 1080p [HEVC]
Формат: MKV
Видео кодек: H.265
Аудио кодек: AAC, AC3
Видео: HEVC, 1920x808 (2.40:1), 23.976 fps, 1617 Kbps
Аудио 1: AAC, 48.0 KHz, 2 ch, 128 Kbps | UKR [Дубляж (Чистый звук)]
Аудио 2: AC3, 48.0 KHz, 6 ch, 384 Kbps | ENG [Оригинал]-Сэмпл-Рекламы нет-

MediaInfo

Общее
Уникальный идентификатор : 202866231331772859516690849773697503623 (0x989E9D6E31CC16D607BCB1721ED61187)
Полное имя : The Incredibles 2 (2018) WEB-DLRip 1080p H.265 [UKR_ENG].mkv
Формат : Matroska
Версия формата : Version 4 / Version 2
Размер файла : 1,75 Гбайт
Продолжительность : 1 ч. 57 м.
Общий поток : 2132 Кбит/сек
Название фильма : Incredibles 2 (2018)
Дата кодирования : UTC 2018-10-24 07:42:47
Программа кодирования : mkvmerge v20.0.0 ('I Am The Sun') 32-bit
Библиотека кодирования : libebml v1.3.5 + libmatroska v1.4.8
Обложка : Yes
Attachments : Cover.jpg
Видео
Идентификатор : 1
Формат : HEVC
Формат/Информация : High Efficiency Video Coding
Профиль формата : [email protected]@Main
Идентификатор кодека : V_MPEGH/ISO/HEVC
Продолжительность : 1 ч. 57 м.
Битрейт : 1617 Кбит/сек
Ширина : 1920 пикселей
Высота : 808 пикселей
Соотношение сторон : 2,40:1
Режим частоты кадров : Переменный
Частота кадров : 23,976 (24000/1001) кадра/сек
Цветовое пространство : YUV
Субдискретизация насыщенности : 4:2:0
Битовая глубина : 8 бит
Бит/(Пиксели*Кадры) : 0.043
Размер потока : 1,33 Гбайт (76%)
Язык : English
Default : Да
Forced : Нет
Аудио #1
Идентификатор : 2
Формат : AAC
Формат/Информация : Advanced Audio Codec
Профиль формата : LC
Идентификатор кодека : A_AAC
Продолжительность : 1 ч. 57 м.
Битрейт : 128 Кбит/сек
Каналы : 2 канала
Расположение каналов : Front: L R
Частота : 48,0 КГц
Частота кадров : 46,875 кадров/сек (1024 spf)
Метод сжатия : С потерями
Размер потока : 108 Мбайт (6%)
Заголовок : Line
Язык : Ukrainian
Default : Да
Forced : Нет
Аудио #2
Идентификатор : 3
Формат : AC-3
Формат/Информация : Audio Coding 3
Расширение режима : CM (complete main)
Параметр Endianness формата : Big
Идентификатор кодека : A_AC3
Продолжительность : 1 ч. 57 м.
Вид битрейта : Постоянный
Битрейт : 384 Кбит/сек
Каналы : 6 каналов
Расположение каналов : Front: L C R, Side: L R, LFE
Частота : 48,0 КГц
Частота кадров : 31,250 кадров/сек (1536 spf)
Битовая глубина : 16 бит
Метод сжатия : С потерями
Размер потока : 324 Мбайт (18%)
Заголовок : Original
Язык : English
Default : Нет
Forced : Нет
Текст
Идентификатор : 4
Формат : UTF-8
Идентификатор кодека : S_TEXT/UTF8
Идентификатор кодека/Информация : UTF-8 Plain Text
Продолжительность : 1 ч. 55 м.
Битрейт : 71 бит/сек
Count of elements : 2024
Размер потока : 60,3 Кбайт (0%)
Заголовок : Full
Язык : English
Default : Нет
Forced : Нет
Меню
00:00:00.000 : :Tony Interrogation
00:03:22.200 : :Incredibles vs Underminer
00:08:52.200 : :Chewed Out
00:09:36.200 : :Family Dinner
00:13:38.200 : :Poolside
00:15:44.200 : :Deavor Meets Supers
00:21:19.200 : :Pillow Talk
00:23:27.200 : :New House
00:27:08.200 : :Where's Mom?
00:28:59.200 : :Runaway Train
00:35:11.200 : :Raccoon Fight
00:39:07.200 : :Helen Checks In
00:42:44.200 : :Tony Forgets
00:43:41.200 : :Air Rescue
00:47:35.200 : :Breakfast Blowup
00:48:52.200 : :Triumph Return
00:54:15.200 : :Vi Embarrassed
00:56:16.200 : :Tracking Screenslaver
01:00:58.200 : :Screenslaver Caught
01:02:02.200 : :Breaking Point
01:06:55.200 : :E The Babysitter
01:09:18.200 : :Helen Reviews Footage
01:11:28.200 : :Bob's Apology
01:12:37.200 : :Helen Slips Away
01:14:39.200 : :Auntie E
01:18:00.200 : :Cold Room
01:20:32.200 : :House Attack
01:25:01.200 : :Kids Alone
01:27:59.200 : :Super Signing
01:31:54.200 : :Kids To The Rescue
01:33:26.200 : :Trap Is Sprung
01:36:24.200 : :Battle Royale
01:37:45.200 : :Save The Day
01:43:57.200 : :Resolution
01:45:36.200 : :Epilogue
01:47:30.200 : :End Credits
-
- -
Рейтинг@Mail.ru