Небольшое одолжение / Little Favour (2013) WEB-DLRip [VO]

 

Создавать темы 06-Фев-2014 04:36

-Небольшое одолжение / Little Favour (2013) WEB-DLRip- Год выпуска: 2013
Производство: Великобритания
Жанр: Короткометражка, боевик, триллер
Перевод: Одноголосый закадровый, любительский
Озвучка / Автор перевода: Студия "Paradox"
Субтитры: Отсутствуют
Дата мировой премьеры: 1 ноября 2013
Режиссер: Патрик Монро
Продюсер: Патрик Монро, Андреа Уильямс,
Актеры: Бенедикт Камбербэтч, Нина Фриис, Ник Моран, Колин Сэлмон, Роберт Шеннон, Джулиан Шоу, Джон Стриит, Дженнифер Ван Гессел
Описание фильма:
Это история Уоллеса. Прошло уже 7 лет с тех пор, как он оставил службу и 10 лет с того момента, когда его американский коллега, ставший и его другом, спас ему жизнь во время миссии в Ираке. Он вполне успешно занимается бизнесом, стараясь скрыть свою внутреннюю борьбу с посттравматическим стрессовым расстройством. Однажды, когда, казалось бы, наконец, он решается начать новые нормальные отношения, появляется его старый друг Джеймс и просит сделать ему «небольшое одолжение». Мог ли он отказать, ведь этот человек спас ему жизнь?

Продолжительность: 00:21:15
Качество видео: WEB-DLRip
Видеокодек: Xvid
Битрейт видео: ~1744 kb/s
Размер кадра: 720х320
Аудиокодек: AC3 2.0
Битрейт аудио: 192.00 kbps

Mediainfo

Общее
Полное имя : H:\Little Favour\Little.Favour.2013.L1.WEBDLRip.avi
Формат : AVI
Формат/Информация : Audio Video Interleave
Размер файла : 296 Мбайт
Продолжительность : 21 м.
Общий поток : 1948 Кбит/сек
Программа кодирования : VirtualDubMod 1.5.10.2 (build 2540/release)
Библиотека кодирования : VirtualDubMod build 2540/release
Видео
Идентификатор : 0
Формат : MPEG-4 Visual
Профиль формата : Advanced [email protected]
Параметр BVOP формата : 1
Параметр QPel формата : Нет
Параметр GMC формата : Без точки перехода
Параметр матрицы формата : Default (H.263)
Идентификатор кодека : XVID
Идентификатор кодека/Подсказка : XviD
Продолжительность : 21 м.
Битрейт : 1744 Кбит/сек
Ширина : 720 пикселей
Высота : 320 пикселей
Соотношение сторон : 2,25:1
Частота кадров : 29,970 кадров/сек
Цветовое пространство : YUV
Субдискретизация насыщенности : 4:2:0
Битовая глубина : 8 бит
Тип развёртки : Прогрессивная
Метод сжатия : С потерями
Бит/(Пиксели*Кадры) : 0.253
Размер потока : 265 Мбайт (90%)
Библиотека кодирования : XviD 1.2.1 (UTC 2008-12-04)
Аудио
Идентификатор : 1
Формат : AC-3
Формат/Информация : Audio Coding 3
Расширение режима : CM (complete main)
Параметр Endianness формата : Big
Идентификатор кодека : 2000
Продолжительность : 21 м.
Вид битрейта : Постоянный
Битрейт : 192 Кбит/сек
Каналы : 2 канала
Расположение каналов : Front: L R
Частота : 48,0 КГц
Битовая глубина : 16 бит
Метод сжатия : С потерями
Размер потока : 29,2 Мбайт (10%)
Выравнивание : Разделение по промежуткам
Продолжительность промежутка : 33 мс. (1,00 видеокадр)
Время предзагрузки промежутка : 500 мс.
Скриншоты:
Яндекс.Метрика
Рейтинг@Mail.ru