Канцелярская крыса (2018) WEBRip (сезон 1, серии 1-16 из 16)

 

Создавать темы 05-Окт-2018 10:55

Канцелярская крыса(сезон 1, серии 1-16 из 16) - Производство: Россия / «Триикс Медиа»
Жанр: детектив, драма
Режиссер: Иван Глубоков
Актеры: Константин Стрельников, Алексей Кравченко, Ингрид Олеринская, Елена Полякова, Алексей Нилов, Вадим Сквирский, Сергей Кошонин, Валерий Гришко, Роман Жилкин, Андрей Павловец и др.-Сотрудника полицейского архива — майора Андрея Вершинина — повышают и переводят в приграничный город Портовый. Вершинину предстоит занять должность руководителя УВД вместо погибшего полковника Авдеева. Нового начальника встречают настороженно: подчинённые открыто с ним конфликтуют, а пресса и общественность, взволнованные недавней серией ограблений, просто возмущены этим назначением. Теперь герою предстоит доказать свою компетентность в реальном раскрытии преступлений и не отступиться от дела даже в атмосфере всеобщего недоверия.
Возраст: 16+ (зрителям, достигшим 16 лет)
Дата российской премьеры: 24 сентября 2018 (НТВ)
Продолжительность: ~00:50:00 серия
Качество видео: WEBRip
Видео: Xvid, 720x352, ~1334 Kbps
Аудио: AC3, 2 ch, 192 kbps

Тех. данные видеофайла

Общее
Полное имя : D:\Мои фильмы\Kanceljarskaja_krysa_1-16iz16_2017_XviD_WEBRip\Kanceljarskaja_krysa_01.avi
Формат : AVI
Формат/Информация : Audio Video Interleave
Размер файла : 555 Мбайт
Продолжительность : 50 м. 34 с.
Общий поток : 1535 Кбит/сек
Программа кодирования : VirtualDubMod 1.5.10.3 www.virtualdub-fr.org || (build 2550/release)
Библиотека кодирования : VirtualDub2 build 41867/release
Видео
Идентификатор : 0
Формат : MPEG-4 Visual
Профиль формата : Advanced [email protected]
Настройки формата : BVOP2
Параметр BVOP формата : 2
Параметр QPel формата : Нет
Параметр GMC формата : Без точки перехода
Параметр матрицы формата : Default (H.263)
Идентификатор кодека : XVID
Идентификатор кодека/Подсказка : XviD
Продолжительность : 50 м. 34 с.
Битрейт : 1334 Кбит/сек
Ширина : 720 пикселей
Высота : 352 пикселя
Соотношение сторон : 2,045
Частота кадров : 25,000 кадров/сек
Цветовое пространство : YUV
Субдискретизация насыщенности : 4:2:0
Битовая глубина : 8 бит
Тип развёртки : Прогрессивная
Метод сжатия : С потерями
Бит/(Пиксели*Кадры) : 0.210
Размер потока : 482 Мбайт (87%)
Библиотека кодирования : XviD 67
Аудио
Идентификатор : 1
Формат : AC-3
Формат/Информация : Audio Coding 3
Коммерческое название : Dolby Digital
Идентификатор кодека : 2000
Продолжительность : 50 м. 34 с.
Вид битрейта : Постоянный
Битрейт : 192 Кбит/сек
Каналы : 2 канала
Channel layout : L R
Частота : 48,0 КГц
Частота кадров : 31,250 кадров/сек (1536 SPF)
Битовая глубина : 16 бит
Метод сжатия : С потерями
Размер потока : 69,4 Мбайт (13%)
Выравнивание : Соединение по промежуткам
Продолжительность промежутка : 40 мс. (1,00 видеокадр)
Время предзагрузки промежутка : 512 мс.
ServiceKind/String : Complete Main.
Рейтинг@Mail.ru