Сестричка Бетти / Nurse Betty (Нил ЛаБут) [2000, драма, комедия, криминал, WEB-DL 1080p от ExKinoRay | D]

 

Создавать темы 14-Сен-2018 18:06

Сестричка Бетти / Nurse Betty---Информация о фильме- Название: Сестричка Бетти
Оригинальное название: Nurse Betty
Год выхода: 2000
Жанр: Драма, комедия, криминал
Режиссер: Нил ЛаБут
В ролях: Морган Фримен, Рене Зеллвегер, Крис Рок, Грег Киннер, Аарон Экхарт, Криспин Гловер, Эллисон Джэнни, Прюитт Тейлор Винс, Кэтлин Уилхойте, Хэрриет Сэнсом Харрис, Стивен Гилборн, Элизабет Митчелл, Сьюзан Барнс, Лэйрд Макинтош, Шила Келли-О фильме:-Брать чужое нехорошо. Но нечистый на руку продавец автомобилей Дел Сайзмор забыл эту простую истину. За что и был наказан. Два киллера: Чарли и Уэсли помогли ему переселиться в мир иной. Невольной свидетельницей этого события стала жена Дела - Бетти, в результате чего её немного заклинило, и она отправилась искать счастье в объятиях доктора Рэвелла, персонажа популярного телесериала. А по пятам за ней следует парочка убийц, у которых осталось к семье Сайзморов незавершённое дело...--Выпущено: Германия, США, Gramercy Pictures (I), Pacifica Film, Propaganda Films
Продолжительность: 01:50:53
Перевод: Дублированный-Файл-Кодек: x264
Качество: WEB-DL 1080p
Видео: MPEG-4 AVC, 13.0 Mбит/с, 1920x816
Звук №1: Русский | AC3, 6 ch, 448 Кбит/с
Звук №2: Английский | EAC3, 6 ch, 640 Кбит/с
Субтитры: Английские-

Скриншоты

--
-

Инфо-файл

-Формат : Matroska
Версия формата : Version 2
Размер файла : 11,1 Гбайт
Продолжительность : 1 ч. 50 м.
Режим общего битрейта : Переменный
Общий поток : 14,3 Мбит/сек
Название фильма : Nurse.Betty.2000.1080p.Amazon.WEB-DL.zzZGVvv
Дата кодирования : UTC 2018-09-10 14:59:11
Программа кодирования : mkvmerge v5.8.0 ('No Sleep / Pillow') built on Sep 2 2012 15:37:04
Библиотека кодирования : libebml v1.2.3 + libmatroska v1.3.0
Attachements : cover.jpg
Видео
Идентификатор : 1
Формат : AVC
Формат/Информация : Advanced Video Codec
Профиль формата : [email protected]
Параметр CABAC формата : Да
Параметр ReFrames формата : 4 кадра
Идентификатор кодека : V_MPEG4/ISO/AVC
Продолжительность : 1 ч. 50 м.
Вид битрейта : Переменный
Битрейт : 13,0 Мбит/сек
Максимальный битрейт : 15,0 Мбит/сек
Ширина : 1920 пикселей
Высота : 816 пикселей
Соотношение сторон : 2,35:1
Режим частоты кадров : Постоянный
Частота кадров : 23,976 кадра/сек
Цветовое пространство : YUV
Субдискретизация насыщенности : 4:2:0
Битовая глубина : 8 бит
Тип развёртки : Прогрессивная
Бит/(Пиксели*Кадры) : 0.345
Размер потока : 10,0 Гбайт (90%)
Библиотека кодирования : x264 core 148 r2623 d5b2374
Настройки программы : cabac=1 / ref=4 / deblock=1:-1:-1 / analyse=0x3:0x133 / me=umh / subme=9 / psy=1 / psy_rd=1.00:0.15 / mixed_ref=1 / me_range=24 / chroma_me=1 / trellis=2 / 8x8dct=1 / cqm=0 / deadzone=21,11 / fast_pskip=1 / chroma_qp_offset=-3 / threads=25 / lookahead_threads=4 / sliced_threads=0 / nr=150 / decimate=1 / interlaced=0 / bluray_compat=0 / constrained_intra=0 / bframes=8 / b_pyramid=2 / b_adapt=2 / b_bias=0 / direct=3 / weightb=1 / open_gop=0 / weightp=2 / keyint=120 / keyint_min=61 / scenecut=0 / intra_refresh=0 / rc_lookahead=120 / rc=crf / mbtree=1 / crf=18.0 / qcomp=0.60 / qpmin=0 / qpmax=69 / qpstep=4 / vbv_maxrate=15000 / vbv_bufsize=31250 / crf_max=0.0 / nal_hrd=vbr / filler=0 / ip_ratio=1.40 / aq=3:1.00
Язык : English
Default : Да
Forced : Нет
Цветовой диапазон : Limited
Основные цвета : BT.709
Характеристики трансфера : BT.709
Коэффициенты матрицы : BT.709
Аудио #1
Идентификатор : 2
Формат : AC-3
Формат/Информация : Audio Coding 3
Расширение режима : CM (complete main)
Параметр Endianness формата : Big
Идентификатор кодека : A_AC3
Продолжительность : 1 ч. 50 м.
Вид битрейта : Постоянный
Битрейт : 448 Кбит/сек
Каналы : 6 каналов
Расположение каналов : Front: L C R, Side: L R, LFE
Частота : 48,0 КГц
Метод сжатия : С потерями
Размер потока : 355 Мбайт (3%)
Язык : Russian
Default : Да
Forced : Нет
Аудио #2
Идентификатор : 3
Формат : E-AC-3
Формат/Информация : Audio Coding 3
Параметр Endianness формата : Big
Идентификатор кодека : A_EAC3
Продолжительность : 1 ч. 50 м.
Вид битрейта : Постоянный
Битрейт : 640 Кбит/сек
Каналы : 6 каналов
Расположение каналов : Front: L C R, Side: L R, LFE
Частота : 48,0 КГц
Метод сжатия : С потерями
Размер потока : 508 Мбайт (4%)
Язык : English
Default : Нет
Forced : Нет
Текст
Идентификатор : 4
Формат : UTF-8
Идентификатор кодека : S_TEXT/UTF8
Идентификатор кодека/Информация : UTF-8 Plain Text
Язык : English
Default : Нет
Forced : Нет-
-Релиз от: -
Рейтинг@Mail.ru