Океан Эльзы. Концерт ко Дню Независимости Украины / Океан Ельзи. Концерт до Дня Незалежності України (24.08.2018) WEB-DL [H.264/720p-LQ] [UKR]

 

Создавать темы 29-Авг-2018 22:37

Океан Эльзы. Концерт ко Дню Независимости Украины / Океан Ельзи. Концерт до Дня Незалежності України- Производство: ТК 1+1
Жанр: концерт-24 августа, в День Независимости Украины, группа Океана Эльзы дала большой концерт после почти годичного перерыва на НСК Олимпийский в Киеве.
Концерт длился более 4 часов, его посетили 100 тысяч человек.
-Релиз от: sergiyko
Продолжительность: 03:53:27
Качество видео: WEB-DL
Перевод: Отсутствует
Язык озвучки: украинский
Субтитры: отсутствуют
Видео: AVC/H.264, 1280x720, ~4310 Kbps
Аудио: AAC, 2 ch, ~128 Kbps

Mediainfo:

General
Unique ID : 328925214888108999171084761604527738132 (0xF774B12C4432429FF410345BAEA3CD14)
Complete name : E:\FILMS\Океан Ельзи.Концерт до Дня Незалежності.2018.720p.WEB-DL.mkv
Format : Matroska
Format version : Version 4 / Version 2
File size : 7.25 GiB
Duration : 3 h 53 min
Overall bit rate : 4 443 kb/s
Encoded date : UTC 2018-08-29 06:34:00
Writing application : mkvmerge v25.0.0 ('Prog Noir') 64-bit
Writing library : libebml v1.3.6 + libmatroska v1.4.9
Video
ID : 1
Format : AVC
Format/Info : Advanced Video Codec
Format profile : [email protected]
Format settings : CABAC / 6 Ref Frames
Format settings, CABAC : Yes
Format settings, ReFrames : 6 frames
Codec ID : V_MPEG4/ISO/AVC
Duration : 3 h 53 min
Bit rate : 4 313 kb/s
Width : 1 280 pixels
Height : 720 pixels
Display aspect ratio : 16:9
Frame rate mode : Constant
Frame rate : 25.000 FPS
Color space : YUV
Chroma subsampling : 4:2:0
Bit depth : 8 bits
Scan type : Progressive
Bits/(Pixel*Frame) : 0.187
Stream size : 7.03 GiB (97%)
Writing library : x264 core 142 r2491 24e4fed
Encoding settings : cabac=1 / ref=6 / deblock=1:0:0 / analyse=0x3:0x113 / me=hex / subme=7 / psy=1 / psy_rd=1.00:0.00 / mixed_ref=1 / me_range=16 / chroma_me=1 / trellis=1 / 8x8dct=1 / cqm=0 / deadzone=21,11 / fast_pskip=1 / chroma_qp_offset=-2 / threads=12 / lookahead_threads=2 / sliced_threads=0 / nr=0 / decimate=1 / interlaced=0 / bluray_compat=0 / constrained_intra=0 / bframes=3 / b_pyramid=2 / b_adapt=1 / b_bias=0 / direct=1 / weightb=1 / open_gop=0 / weightp=2 / keyint=100 / keyint_min=10 / scenecut=40 / intra_refresh=0 / rc_lookahead=40 / rc=crf / mbtree=1 / crf=22.0 / qcomp=0.60 / qpmin=0 / qpmax=69 / qpstep=4 / vbv_maxrate=6000 / vbv_bufsize=12000 / crf_max=0.0 / nal_hrd=none / filler=0 / ip_ratio=1.41 / aq=1:1.00
Language : Ukrainian
Default : Yes
Forced : No
Audio
ID : 2
Format : AAC
Format/Info : Advanced Audio Codec
Format profile : LC
Codec ID : A_AAC-2
Duration : 3 h 53 min
Bit rate : 128 kb/s
Channel(s) : 2 channels
Channel positions : Front: L R
Sampling rate : 44.1 kHz
Frame rate : 43.066 FPS (1024 SPF)
Compression mode : Lossy
Stream size : 214 MiB (3%)
Language : Ukrainian
Default : Yes
Forced : No

Создавать темы 29-Авг-2018 23:40 (спустя 1 час 3 минуты)

Был на этом Концерте,впечатлений - Океан!!!
Рейтинг@Mail.ru