Месть - искусство (Игорь Вознесенский) [Боевик, Комедия, Приключения, 2007] (DVBRip)

 

Создавать темы 05-Фев-2014 07:26

Месть - искусство- Русское название: Месть - искусство
Год выпуска: 2007
Производство: Россия, "Серебряный Город"
Жанр: Боевик, Комедия, Приключения

Описание фильма:
Авантюрный боевик с элементами комедии. Действие фильма разворачивается в наши дни. Крепко закрученный сюжет, основанный на реальных событиях, придает происходящему в фильме, достоверность и вызывает безусловный интерес
Режиссер: Игорь Вознесенский
Актеры: Владислава Завадовская, Сергей Воробьев (VI), Семён Стругачёв, Андрей Кузнецов, Михаил Разумовский, Дарья Юргенс, Александр Шехтель, Семён Фурман, Игорь Добряков, Виталий Пичик, Павел Бадыров
Продолжительность: 01:35:06


Видеокодек: MPEG-2
Битрейт видео: ~3384 Kbps, 0.33 bit/pixel
Размер кадра: [email protected] (4:3), 25 fps
Качество видео: DVBRip
Аудиокодек: MPEG Audio, 2 ch
Битрейт аудио: 192.00 kbps avg, 48,0 kHz
Сэмпл: Ссылка

MediaInfo

General
Format : MPEG-PS
File size : 2.42 GiB
Duration : 1h 35mn
Overall bit rate mode : Variable
Overall bit rate : 3 648 Kbps
Video
ID : 224 (0xE0)
Format : MPEG Video
Format version : Version 2
Format profile : [email protected]
Format settings, BVOP : Yes
Format settings, Matrix : Custom
Format settings, GOP : M=3, N=12
Duration : 1h 35mn
Bit rate mode : Variable
Bit rate : 3 384 Kbps
Maximum bit rate : 15.0 Mbps
Width : 720 pixels
Height : 576 pixels
Display aspect ratio : 4:3
Frame rate : 25.000 fps
Standard : PAL
Color space : YUV
Chroma subsampling : 4:2:0
Bit depth : 8 bits
Scan type : Interlaced
Scan order : Top Field First
Compression mode : Lossy
Bits/(Pixel*Frame) : 0.326
Time code of first frame : 00:00:00:00
Time code source : Group of pictures header
Stream size : 2.25 GiB (93%)
Audio
ID : 192 (0xC0)
Format : MPEG Audio
Format version : Version 1
Format profile : Layer 2
Duration : 1h 35mn
Bit rate mode : Constant
Bit rate : 192 Kbps
Channel(s) : 2 channels
Sampling rate : 48.0 KHz
Compression mode : Lossy
Stream size : 131 MiB (5%)
Скриншоты:
-

Яндекс.Метрика
Рейтинг@Mail.ru