СЭР (Сергей Бодров) [1989, Драма, DVD5]

 

Создавать темы 06-Авг-2018 09:42

СЭР- Год выпуска: 1989
Жанр: Драма
Продолжительность: 90 мин.
Режиссер: Сергей Бодров
В ролях: Володя Козырев, Александр Буреев, Светлана Гайтан, Витаутас Томкус, Сергей Шкаликов, Игорь Косухин, Ким Хо Нам, Коля Аверин, Сережа Черных, Женя Кравченко, Ксения Назарова.-У Саши Григорьева есть две основные ценности, два мифа: свобода, тождественная раю («Свобода — Это Рай», так расшифровывается название фильма и наколка на руке героя), и отец, которого Саша никогда не видел и который сидит в другой тюрьме. Миф об отце, в отличии от мифа о свободе, не объединяет Сашу с другими воспитанниками спецшколы, а напротив, отделяет его от социальной группы. Герой фильма снова и снова убегает из спецшколы, чтобы найти отца, хотя знает, что за его побеги будет наказана вся школа, и ему за это отомстят. Человек, отвергнутый обществом, теперь сам отвергает то подобие общества, к которому он мог себя причислить. Отвергает не ради рая, именуемого свободой, а ради другого, личного мифа.
... Подросток бежит из спецшколы для "трудных" малолеток. Бежит через всю страну в... колонию, где "мотает срок" его отец...
Сюжет драмы Сергея Бодрова ("Непрофессионалы", "Кавказский пленник") не блещет изощренными сюжетными поворотами. Зато характер главного героя разработан убедительно и точно. Да и юный актер Володя Козырев играет достоверно и эмоционально. И надо сказать, что "СЭР" не потерялся среди десятков других фильмов "перестроечных времен", в модном тогда разоблачительном ключе трактовавших тематику невзгод подрастающего поколения. Думаю, "СЭР" - один из лучших фильмов С.Бодрова. Здесь нет стремления к эпатажу ради самого эпатажа, желания подпустить побольше уже тогда начинавшей приедаться "чернухи". Это драма отца и сына, выброшенных на обочину жизни в стране, где никогда не ценилась жизнь отдельного простого человека. В стране, вот уже который десяток лет живущей по пословице: "Лес рубят, щепки летят...".-Доп. информация: Другое название: Свобода - это рай
Сценарист: Сергей Бодров
Оператор: Юрий Схиртладзе
Художник: Валерий Кострин
Производство: Мосфильм
Качество: DVD5
Формат: DVD Video
Видео кодек: MPEG2
Аудио кодек: AC3
Видео: Type: Interlaced MPEG2, Bitrate: 7.100 Mbps, Framerate: 25.000 Hz, Resolution: 720x576, Aspect ratio: 4x3
Аудио: Type: Dolby Digital (AC3), Bitrate: 192 Kbps, Number of channels: 2, Sampling Frequency: 48khz, Sampling Bits: 16

медиаинфо

Общее
Полное имя : E:\Кино\Сэр 1989\VIDEO_TS\VTS_01_1.VOB
Формат : MPEG-PS
Размер файла : 1024 Мбайт
Продолжительность : 19 м.
Общий поток : 7417 Кбит/сек
Видео
Идентификатор : 224 (0xE0)
Формат : MPEG Video
Версия формата : Version 2
Профиль формата : [email protected]
Параметр BVOP формата : Да
Параметр матрицы формата : Выборочная
Параметр GOP формата : M=3, N=15
Продолжительность : 19 м.
Битрейт : 7100 Кбит/сек
Ширина : 720 пикселей
Высота : 576 пикселей
Соотношение сторон : 4:3
Частота кадров : 25,000 кадров/сек
Стандарт вещания : PAL
Цветовое пространство : YUV
Субдискретизация насыщенности : 4:2:0
Битовая глубина : 8 бит
Тип развёртки : Чересстрочная
Порядок развёртки : Нижнее поле первое
Метод сжатия : С потерями
Бит/(Пиксели*Кадры) : 0.685
Временной код первого кадра : 00:00:00:00
Оригинал временного кода : Group of pictures header
Размер потока : 977 Мбайт (95%)
Аудио
Идентификатор : 189 (0xBD)-128 (0x80)
Формат : AC-3
Формат/Информация : Audio Coding 3
Расширение режима : CM (complete main)
Параметр Endianness формата : Big
Режим смешивания : DVD-Video
Продолжительность : 19 м.
Вид битрейта : Постоянный
Битрейт : 192 Кбит/сек
Каналы : 2 канала
Расположение каналов : Front: L R
Частота : 48,0 КГц
Битовая глубина : 16 бит
Метод сжатия : С потерями
Размер потока : 26,5 Мбайт (3%)
Меню
Рейтинг@Mail.ru