[ Сегодня на трекере фрилич! Идет свободное скачивание без начисления Download ]

Торжественный финал / Grand Piano (Eugenio Mira / Эухенио Мира) [2013 г., триллер, WEB-DLRip] VO

 

Создавать темы 05-Фев-2014 02:01

-Торжественный финал / Grand Piano- - Производство: Испания
Год выпуска: 2013 г.
Жанр: триллер
Продолжительность: 01:30:15
Мировая премьера: 20 сентября 2013
Перевод: Любительский (одноголосый, закадровый) [Andi]
Оригинальный аудиопоток: английский
Режиссер: Eugenio Mira / Эухенио Мира-В ролях:
Элайджа Вуд, Джон Кьюсак, Аллен Лич, Тэмсин Эгертон, Керри Бише, Ди Уоллес-Стоун, Алекс Уинтер, Дон МакМанус, Дон Кресс, Кристофер Калер-Описание:
История знаменитого пианиста, который на много лет оказывается отлученным от концертной деятельности из-за патологической боязни сцены. Когда же, наконец, ему удается преодолеть свой страх и выступить перед публикой, он вдруг узнает, что попал в смертельную ловушку. На выбор ему уготованы только два варианта — либо продолжать мастерски играть, либо погибнуть вместе с женой от рук загадочного безумца.
-Качество видео: WEB-DLRip
Контейнер: AVI
Видео кодек: XviD
Аудио кодек: AC3/MP3
Видео: 720x304 (2.37:1), 23.976 fps, XviD build 50 ~1699 kbps avg, 0.32 bit/pixel
Аудио #1: RUS: 48 kHz, AC3 Dolby Digital, 3/2 (L,C,R,l,r) + LFE ch, ~320 kbps
Аудио #2: ENGL: 44.100 kHz, MPEG Layer 3, 2 ch, ~192.00 kbps avg
Cубтитры: отсутствуют
-

Media Info

General
Complete name : D:\ВИДЕО\Grand.Piano.2013.L1.WEB-DLRip.1400MB_[pirat.ca].avi
Format : AVI
Format/Info : Audio Video Interleave
File size : 1.40 GiB
Duration : 1h 30mn
Overall bit rate : 2 226 Kbps
Writing application : VirtualDubMod 1.5.10.2 (build 2540/release)
Writing library : VirtualDubMod build 2540/release
Video
ID : 0
Format : MPEG-4 Visual
Format profile : Advanced [email protected]
Format settings, BVOP : 2
Format settings, QPel : Yes
Format settings, GMC : No warppoints
Format settings, Matrix : Default (H.263)
Codec ID : XVID
Codec ID/Hint : XviD
Duration : 1h 30mn
Bit rate : 1 700 Kbps
Width : 720 pixels
Height : 304 pixels
Display aspect ratio : 2.35:1
Frame rate : 23.976 fps
Color space : YUV
Chroma subsampling : 4:2:0
Bit depth : 8 bits
Scan type : Progressive
Compression mode : Lossy
Bits/(Pixel*Frame) : 0.324
Stream size : 1.07 GiB (76%)
Writing library : XviD 1.2.1 (UTC 2008-12-04)
Audio #1
ID : 1
Format : AC-3
Format/Info : Audio Coding 3
Mode extension : CM (complete main)
Format settings, Endianness : Big
Codec ID : 2000
Duration : 1h 30mn
Bit rate mode : Constant
Bit rate : 320 Kbps
Channel count : 6 channels
Channel positions : Front: L C R, Side: L R, LFE
Sampling rate : 48.0 KHz
Bit depth : 16 bits
Compression mode : Lossy
Stream size : 207 MiB (14%)
Alignment : Split accross interleaves
Interleave, duration : 42 ms (1.00 video frame)
Interleave, preload duration : 500 ms
Audio #2
ID : 2
Format : MPEG Audio
Format version : Version 1
Format profile : Layer 3
Codec ID : 55
Codec ID/Hint : MP3
Duration : 1h 30mn
Bit rate mode : Constant
Bit rate : 192 Kbps
Channel count : 2 channels
Sampling rate : 44.1 KHz
Compression mode : Lossy
Stream size : 124 MiB (9%)
Alignment : Split accross interleaves
Interleave, duration : 42 ms (1.00 video frame)
Interleave, preload duration : 500 ms

Скриншоты

Яндекс.Метрика
Рейтинг@Mail.ru