Рыбалка с Нормундом Грабовскисом. Голец в Швеции (Стрим ТВ) [2014 г., Документальный, рыбалка, DVB]

 

Создавать темы 04-Фев-2014 02:29

-Рыбалка с Нормундом Грабовскисом. Голец в Швеции-- Производство: Россия
Жанр: Документальный, рыбалка
Год выпуска: 2014 г.
Продолжительность: 00:25:21
Перевод: Не требуется
Оригинальный аудиопоток: русский
Режиссер: Стрим ТВ-Описание: Ужение гольца от профессионального рыбака Нормунда Грабовскиса.-Качество видео: DVB
Контейнер: MPEG-2
Видео кодек: MPEG2
Аудио кодек: MPEG
Видео: MPEG2 Video 720x576 (4:3) 25fps 2 756 Kbps
Аудио: MPEG Audio 48000Hz stereo 192kbps
Cубтитры: отсутствуют

Media Info

General
Complete name : D:\Рыбалка с Нормундом Грабовскисом 2014-01.mpg
Format : MPEG-PS
File size : 545 MiB
Duration : 25mn 20s
Overall bit rate mode : Variable
Overall bit rate : 3 008 Kbps
Video
ID : 224 (0xE0)
Format : MPEG Video
Format version : Version 2
Format profile : [email protected]
Format settings, BVOP : No
Format settings, Matrix : Custom
Format settings, GOP : M=3, N=12
Duration : 25mn 20s
Bit rate mode : Variable
Bit rate : 2 756 Kbps
Maximum bit rate : 10 000 Kbps
Width : 720 pixels
Height : 576 pixels
Display aspect ratio : 4:3
Frame rate : 25.000 fps
Standard : PAL
Color space : YUV
Chroma subsampling : 4:2:0
Bit depth : 8 bits
Scan type : Interlaced
Scan order : Top Field First
Compression mode : Lossy
Bits/(Pixel*Frame) : 0.266
Time code of first frame : 00:00:00:00
Time code source : Group of pictures header
Stream size : 500 MiB (92%)
Matrix coefficients : BT.601
Audio
ID : 192 (0xC0)
Format : MPEG Audio
Format version : Version 1
Format profile : Layer 2
Duration : 25mn 20s
Bit rate mode : Constant
Bit rate : 192 Kbps
Channel count : 2 channels
Sampling rate : 48.0 KHz
Compression mode : Lossy
Stream size : 34.8 MiB (6%)

Скриншот c названием фильма

Скриншоты

Яндекс.Метрика
Рейтинг@Mail.ru