Языческая мадонна / A Pogany madonna (Дьюла Месарош / Dyyula Mesarosh) [1980 г., детектив, DVDRip] Dub

 

Создавать темы 04-Фев-2014 02:24

-Языческая мадонна / A Pogany madonna-- Производство: Венгрия
Год выпуска: 1980 г.
Жанр: детектив
Продолжительность: 01:21:58
Перевод: Профессиональный (полное дублирование)
Режиссер: Дьюла Месарош / Dyyula Mesarosh-В ролях: Иштван Буйтор, Андраш Керн, Ласло Банхиди, Ференц Каллаи, Петер Бенке-Описание: Из музея, находящегося в маленьком городке на Балатоне, была похищена уникальная статуя античной богини плодородия Деметры, известная под названием "Языческая мадонна". При этом тяжело ранен служитель музея. Дело о похищении бесценной музейной статуэтки из чистого золота поручили расследовать тогда еще молодому и неопытному следователю Кардошу. Преступники могли бы спать спокойно, но за дело берется и находчивый лейтенант Капелька.-Качество видео: DVDRip
Контейнер: AVI
Видео кодек: XviD
Аудио кодек: AC3
Видео: 688x512 (1.34:1), 25 fps, XviD MPEG-4 ~1999 kbps avg, 0.23 bit/pixel
Аудио: 48 kHz, AC3 Dolby Digital, 3/2 (L,C,R,l,r) + LFE ch, ~384.00 kbps avg
Cубтитры: отсутствуют

Media Info

General
Complete name : C:\Documents and Settings\Mersicc\Мои документы\Мои видеозаписи\Языческая мадонна\Языческая мадонна.avi
Format : AVI
Format/Info : Audio Video Interleave
File size : 1.37 GiB
Duration : 1h 21mn
Overall bit rate : 2 393 Kbps
Writing library : VirtualDub build 35390/release
Video
ID : 0
Format : MPEG-4 Visual
Format profile : Advanced [email protected]
Format settings, BVOP : 2
Format settings, QPel : No
Format settings, GMC : No warppoints
Format settings, Matrix : Default (MPEG)
Muxing mode : Packed bitstream
Codec ID : XVID
Codec ID/Hint : XviD
Duration : 1h 21mn
Bit rate : 1 999 Kbps
Width : 688 pixels
Height : 512 pixels
Display aspect ratio : 4:3
Frame rate : 25.000 fps
Color space : YUV
Chroma subsampling : 4:2:0
Bit depth : 8 bits
Scan type : Progressive
Compression mode : Lossy
Bits/(Pixel*Frame) : 0.227
Stream size : 1.14 GiB (84%)
Writing library : XviD 64
Audio
ID : 1
Format : AC-3
Format/Info : Audio Coding 3
Mode extension : CM (complete main)
Format settings, Endianness : Big
Codec ID : 2000
Duration : 1h 21mn
Bit rate mode : Constant
Bit rate : 384 Kbps
Channel(s) : 6 channels
Channel positions : Front: L C R, Side: L R, LFE
Sampling rate : 48.0 KHz
Bit depth : 16 bits
Compression mode : Lossy
Stream size : 225 MiB (16%)
Alignment : Aligned on interleaves
Interleave, duration : 40 ms (1.00 video frame)
Interleave, preload duration : 512 ms

Скриншот c названием фильма

Скриншоты

Яндекс.Метрика
Рейтинг@Mail.ru