Хижина в лесу: Новая глава / Demon Hole (Джош Крук) [2017, ужасы, комедия, WEB-DL 1080p | iTunes]

 

Создавать темы 11-Июл-2018 15:09

Хижина в лесу: Новая глава / Demon Hole
Информация о фильме- Название: Хижина в лесу: Новая глава
Оригинальное название: Demon Hole
Год выхода: 2017
Жанр: ужасы, комедия
Режиссер: Джош Крук
В ролях: Саманта Скаффиди, Пэрис Кэмпбелл, Laura Barbiea, Саммер Биллс, Адриан Дензель, Стив Липман, Danielle Brigner, James S. Euto, Ralph Scott-О фильме:-Разработка полезных ископаемых на священной земле индейцев пробудила древнего демона. Есть только два выхода из леса: поддаться демону или умереть.--Страна: США
Продолжительность: 01:17:24
Перевод: Профессиональный (многоголосый закадровый) iTunes-Файл-Качество: WEB-DL 1080p
Формат: MKV
Видео кодек: MPEG-4 AVC
Аудио кодек: AC-3
Видео: MPEG-4 AVC, 1920x802, 4565 Kb/s, 24,000 fps
Аудио: AC-3, 6 ch, 384 Kbps, 48,0 KHz
Субтитры: Нет-

MediaInfo

-Общее
Уникальный идентификатор : 288902507019633257333303029120775235740 (0xD9589953547D9D93E7B8D0F7891C289C)
Полное имя : H:Хижина в лесу Новая глава+XIGINA.B.LECU.WEB-DL.1080p.mkv
Формат : Matroska
Версия формата : Version 4 / Version 2
Размер файла : 2,68 Гбайт
Продолжительность : 1 ч. 17 м.
Общий поток : 4951 Кбит/сек
Дата кодирования : UTC 2018-07-04 22:29:27
Программа кодирования : mkvmerge v24.0.0 ('Beyond The Pale') 64-bit
Библиотека кодирования : libebml v1.3.6 + libmatroska v1.4.9
Видео
Идентификатор : 2
Формат : AVC
Формат/Информация : Advanced Video Codec
Профиль формата : [email protected]
Параметр CABAC формата : Да
Параметр ReFrames формата : 5 кадров
Идентификатор кодека : V_MPEG4/ISO/AVC
Продолжительность : 1 ч. 17 м.
Битрейт : 4565 Кбит/сек
Ширина : 1920 пикселей
Высота : 802 пикселя
Соотношение сторон : 2,40:1
Режим частоты кадров : Постоянный
Частота кадров : 24,000 кадра/сек
Цветовое пространство : YUV
Субдискретизация насыщенности : 4:2:0
Битовая глубина : 8 бит
Тип развёртки : Прогрессивная
Бит/(Пиксели*Кадры) : 0.124
Размер потока : 2,47 Гбайт (92%)
Язык : English
Default : Да
Forced : Нет
Цветовой диапазон : Limited
Основные цвета : BT.709
Характеристики трансфера : BT.709
Коэффициенты матрицы : BT.709
Аудио
Идентификатор : 1
Формат : AC-3
Формат/Информация : Audio Coding 3
Параметр Endianness формата : Big
Идентификатор кодека : A_AC3
Продолжительность : 1 ч. 17 м.
Вид битрейта : Постоянный
Битрейт : 384 Кбит/сек
Каналы : 6 каналов
Расположение каналов : Front: L C R, Side: L R, LFE
Частота : 48,0 КГц
Частота кадров : 31,250 кадров/сек (1536 spf)
Битовая глубина : 16 бит
Метод сжатия : С потерями
Задержка видео : -42 мс.
Размер потока : 213 Мбайт (8%)
Язык : Russian
ServiceKind : Complete Main
Default : Да
Forced : Нет
Меню
00:00:00.000 : en:Глава 1
00:07:11.541 : en:Глава 2
00:14:32.332 : en:Глава 3
00:22:04.540 : en:Глава 4
00:29:45.290 : en:Глава 5
00:38:42.540 : en:Глава 6
00:46:03.123 : en:Глава 7
00:54:15.081 : en:Глава 8
01:01:51.914 : en:Глава 9
01:09:07.414 : en:Глава 10
--

Скриншоты

--
-
Рейтинг@Mail.ru