При загадочных обстоятельствах (Максим Мехеда) [2009, детектив, WEB-DLRip] (1-8 серии из 8)

 

Создавать темы 10-Июл-2018 12:13

При загадочных обстоятельствах (1-8 серии из 8 )--- Страна: Украина
Режиссер: Максим Мехеда
Жанр: детектив
Всего серий: 8
Продолжительность: 8 x ~ 00:50:00
Год выпуска: 2009
В ролях:
Валерий Золотухин, Кирилл Плетнёв, Павел Майков, Сергей Романюк, Валерий Легин, Сергей Сипливый, Дмитрий Суржиков, Михаил Жонин, Анна Андреева, Виктор Сарайкин, Станислав Боклан, Татьяна Коновалова и др.
Описание:
Исчезновение в метро целого поезда с пассажирами, серия парадоксальных смертей от неизвестного яда, кража в Шереметьево особо крупного груза валюты, вакханалия убийств с «дьявольской» изобретательностью маскируемых под несчастный случай… Что объединяет эти на первый взгляд такие разные события? Все они опровергают миф о том, что в СССР не было «громких» преступлений. И все эти запутанные и опасные дела доводится расследовать следователям-профессионалам. Среди них подполковник Старый по кличке «Старик», а также его стажеры — лейтенанты Котин и Сирота.

____________
Формат: WEB-DLRip, AVI, XviD, AC3
Видео: 720x400 (1.80:1), 25.000 fps, XviD build 67 ~1500 kbps avg, 0.21 bit/pixel
Аудио: 48 kHz, AC3 Dolby Digital, 2/0 (L,R) ch, ~192 kbps

Интересные факты

Инспектор Киевского уголовного розыска Алексей Сирота — реальный персонаж. Офицер с почти такой же фамилией действительно работал в столичной милиции в 70-е годы теперь уже прошлого столетия.
Прототип Сироты трагически погиб в конце 70-х.
Валерий Золотухин, сыгравший роль начальника Киевского уголовного розыска подполковника Старого воплотил на экране реального человека.

МИ

General
Complete name : D:\При загадочных обстоятельствах.2009_Klayd X\03.Беспощадная любовь_Klayd X.avi
Format : AVI
Format/Info : Audio Video Interleave
File size : 556 MiB
Duration : 50 min 7 s
Overall bit rate : 1 549 kb/s
Writing library : VirtualDub build 35491/release
Video
ID : 0
Format : MPEG-4 Visual
Format profile : Advanced [email protected]
Format settings : BVOP2
Format settings, BVOP : 2
Format settings, QPel : No
Format settings, GMC : No warppoints
Format settings, Matrix : Default (H.263)
Codec ID : XVID
Codec ID/Hint : XviD
Duration : 50 min 7 s
Bit rate : 1 348 kb/s
Width : 720 pixels
Height : 400 pixels
Display aspect ratio : 16:9
Frame rate : 25.000 FPS
Color space : YUV
Chroma subsampling : 4:2:0
Bit depth : 8 bits
Scan type : Progressive
Compression mode : Lossy
Bits/(Pixel*Frame) : 0.187
Stream size : 483 MiB (87%)
Writing library : XviD 67
Audio
ID : 1
Format : AC-3
Format/Info : Audio Coding 3
Codec ID : 2000
Duration : 50 min 7 s
Bit rate mode : Constant
Bit rate : 192 kb/s
Channel(s) : 2 channels
Channel positions : Front: L R
Sampling rate : 48.0 kHz
Frame rate : 31.250 FPS (1536 SPF)
Bit depth : 16 bits
Compression mode : Lossy
Stream size : 68.8 MiB (12%)
Alignment : Aligned on interleaves
Interleave, duration : 40 ms (1.00 video frame)
Interleave, preload duration : 512 ms
Service kind : Complete Main
Скриншоты:
Рейтинг@Mail.ru