Ozzy Osbourne - The Ultimate Ozzy [JAPAN] (Sony BMG Music Entertainment) [1986/2007г., Hard Rock, DVD9]

 

Создавать темы 04-Июл-2018 22:41

The Ultimate Ozzy [JAPAN ISSUE]
Год выпуска: 2007
Жанр: Hard Rock
Продолжительность: 01:25:53
издатель: Sony BMG Music Entertainment-"The Ultimate Ozzy" записанно во время концертов американского тура в поддержку альбома "The Ultimate Sin",кстати,"разогревали" группу OZZY в том американском туре молодые "Metallica", которые очень понравились Осборну...Довольно редкое видео, молодой OZZY в свои самые лучшие времена.

Треклист:

01. Shot In The Dark
02. Bark At The Moon
03. Suicide Solution
04. Never Know Why
05. Mr.Crowley
06. I Don't Know
07. Killer Of Giants
08. Guitar Solo \Jake E.Lee\
09. Thank God For The Bomb
10. Lightning Strikes
11. Flying High Again
12. Secret Loser
13. Drum Solo \Randy Castillo\
14. Secret Loser part 2
15. Iron Man
16. Crazy Train
17. Paranoid
18. The Ultimate Sin

MediaInfo

Полное имя : D:\tltorrent загрузки\Ozzy Osbourne-The Ultimate Ozzy\Scans\dvd-decrypter.log
Размер файла : 1,89 Кбайт
Общее
Полное имя : D:\tltorrent загрузки\Ozzy Osbourne-The Ultimate Ozzy\Scans\Scans\folder.jpg
Формат : JPEG
Размер файла : 76,1 Кбайт
Изображения
Формат : JPEG
Ширина : 363 пикселя
Высота : 516 пикселей
Субдискретизация насыщенности : 4:2:2
Битовая глубина : 8 бит
Метод сжатия : С потерями
Общее
Полное имя : D:\tltorrent загрузки\Ozzy Osbourne-The Ultimate Ozzy\Scans\Scans\front + back.jpg
Формат : JPEG
Размер файла : 7,37 Мбайт
Изображения
Формат : JPEG
Ширина : 6359 пикселей
Высота : 4320 пикселей
Субдискретизация насыщенности : 4:2:2
Битовая глубина : 8 бит
Метод сжатия : С потерями
Общее
Полное имя : D:\tltorrent загрузки\Ozzy Osbourne-The Ultimate Ozzy\Scans\Scans\img001.jpg
Формат : JPEG
Размер файла : 3,95 Мбайт
Изображения
Формат : JPEG
Ширина : 5100 пикселей
Высота : 4019 пикселей
Субдискретизация насыщенности : 4:2:2
Битовая глубина : 8 бит
Метод сжатия : С потерями
Общее
Полное имя : D:\tltorrent загрузки\Ozzy Osbourne-The Ultimate Ozzy\Scans\Scans\img002.jpg
Формат : JPEG
Размер файла : 4,47 Мбайт
Изображения
Формат : JPEG
Ширина : 5100 пикселей
Высота : 3900 пикселей
Субдискретизация насыщенности : 4:2:2
Битовая глубина : 8 бит
Метод сжатия : С потерями
Общее
Полное имя : D:\tltorrent загрузки\Ozzy Osbourne-The Ultimate Ozzy\Scans\Scans\img003.jpg
Формат : JPEG
Размер файла : 3,02 Мбайт
Изображения
Формат : JPEG
Ширина : 5016 пикселей
Высота : 3935 пикселей
Субдискретизация насыщенности : 4:2:2
Битовая глубина : 8 бит
Метод сжатия : С потерями
Общее
Полное имя : D:\tltorrent загрузки\Ozzy Osbourne-The Ultimate Ozzy\Scans\Scans\img004.jpg
Формат : JPEG
Размер файла : 2,93 Мбайт
Изображения
Формат : JPEG
Ширина : 4859 пикселей
Высота : 3851 пикселей
Субдискретизация насыщенности : 4:2:2
Битовая глубина : 8 бит
Метод сжатия : С потерями
Общее
Полное имя : D:\tltorrent загрузки\Ozzy Osbourne-The Ultimate Ozzy\Scans\Scans\img005.jpg
Формат : JPEG
Размер файла : 2,93 Мбайт
Изображения
Формат : JPEG
Ширина : 5016 пикселей
Высота : 3996 пикселей
Субдискретизация насыщенности : 4:2:2
Битовая глубина : 8 бит
Метод сжатия : С потерями
Общее
Полное имя : D:\tltorrent загрузки\Ozzy Osbourne-The Ultimate Ozzy\Scans\Scans\img006.jpg
Формат : JPEG
Размер файла : 3,33 Мбайт
Изображения
Формат : JPEG
Ширина : 5352 пикселя
Высота : 4180 пикселей
Субдискретизация насыщенности : 4:2:2
Битовая глубина : 8 бит
Метод сжатия : С потерями
Общее
Полное имя : D:\tltorrent загрузки\Ozzy Osbourne-The Ultimate Ozzy\Scans\Scans\img007.jpg
Формат : JPEG
Размер файла : 3,21 Мбайт
Изображения
Формат : JPEG
Ширина : 5185 пикселей
Высота : 4100 пикселей
Субдискретизация насыщенности : 4:2:2
Битовая глубина : 8 бит
Метод сжатия : С потерями
Общее
Полное имя : D:\tltorrent загрузки\Ozzy Osbourne-The Ultimate Ozzy\Scans\Scans\img008.jpg
Формат : JPEG
Размер файла : 3,58 Мбайт
Изображения
Формат : JPEG
Ширина : 5344 пикселя
Высота : 4185 пикселей
Субдискретизация насыщенности : 4:2:2
Битовая глубина : 8 бит
Метод сжатия : С потерями
Общее
Полное имя : D:\tltorrent загрузки\Ozzy Osbourne-The Ultimate Ozzy\Scans\Scans\img009.jpg
Формат : JPEG
Размер файла : 576 Кбайт
Изображения
Формат : JPEG
Ширина : 2832 пикселя
Высота : 2868 пикселей
Субдискретизация насыщенности : 4:2:2
Битовая глубина : 8 бит
Метод сжатия : С потерями
Общее
Полное имя : D:\tltorrent загрузки\Ozzy Osbourne-The Ultimate Ozzy\Scans\Scans\img010.jpg
Формат : JPEG
Размер файла : 2,86 Мбайт
Изображения
Формат : JPEG
Ширина : 4259 пикселей
Высота : 1716 пикселей
Субдискретизация насыщенности : 4:2:2
Битовая глубина : 8 бит
Метод сжатия : С потерями
Общее
Полное имя : D:\tltorrent загрузки\Ozzy Osbourne-The Ultimate Ozzy\VIDEO_TS.BUP
Формат : DVD Video
Профиль формата : Menu
Размер файла : 14,0 Кбайт
Режим общего битрейта : Переменный
Видео
Идентификатор : 224 (0xE0)
Формат : MPEG Video
Версия формата : Version 2
Вид битрейта : Переменный
Ширина : 720 пикселей
Высота : 480 пикселей
Соотношение сторон : 4:3
Частота кадров : 29,970 кадров/сек
Стандарт вещания : NTSC
Метод сжатия : С потерями
Текст
Формат : RLE
Формат/Информация : Run-length encoding
Битовая глубина : 2 бит
Общее
Полное имя : D:\tltorrent загрузки\Ozzy Osbourne-The Ultimate Ozzy\VIDEO_TS.IFO
Формат : DVD Video
Профиль формата : Menu
Размер файла : 14,0 Кбайт
Режим общего битрейта : Переменный
Видео
Идентификатор : 224 (0xE0)
Формат : MPEG Video
Версия формата : Version 2
Вид битрейта : Переменный
Ширина : 720 пикселей
Высота : 480 пикселей
Соотношение сторон : 4:3
Частота кадров : 29,970 кадров/сек
Стандарт вещания : NTSC
Метод сжатия : С потерями
Текст
Формат : RLE
Формат/Информация : Run-length encoding
Битовая глубина : 2 бит
Общее
Полное имя : D:\tltorrent загрузки\Ozzy Osbourne-The Ultimate Ozzy\VIDEO_TS.VOB
Формат : MPEG-PS
Размер файла : 114 Кбайт
Продолжительность : 400 мс.
Общий поток : 2335 Кбит/сек
Видео
Идентификатор : 224 (0xE0)
Формат : MPEG Video
Версия формата : Version 2
Профиль формата : [email protected]
Параметр BVOP формата : Да
Параметр матрицы формата : Выборочная
Продолжительность : 400 мс.
Максимальный битрейт : 2000 Кбит/сек
Ширина : 720 пикселей
Высота : 480 пикселей
Соотношение сторон : 4:3
Частота кадров : 29,970 кадров/сек
Стандарт вещания : NTSC
Цветовое пространство : YUV
Субдискретизация насыщенности : 4:2:0
Битовая глубина : 8 бит
Тип развёртки : Чересстрочная
Порядок развёртки : Верхнее поле первое
Метод сжатия : С потерями
Текст
Идентификатор : 189 (0xBD)-32 (0x20)
Формат : RLE
Формат/Информация : Run-length encoding
Режим смешивания : DVD-Video
Задержка видео : -66 мс.
Меню
Общее
Полное имя : D:\tltorrent загрузки\Ozzy Osbourne-The Ultimate Ozzy\VTS_01_0.BUP
Формат : DVD Video
Профиль формата : Program
Размер файла : 66,0 Кбайт
Продолжительность : 1 ч. 25 м.
Режим общего битрейта : Переменный
Общий поток : 104 бит/сек
Видео
Идентификатор : 224 (0xE0)
Формат : MPEG Video
Версия формата : Version 2
Продолжительность : 1 ч. 25 м.
Вид битрейта : Переменный
Ширина : 720 пикселей
Высота : 480 пикселей
Соотношение сторон : 4:3
Частота кадров : 29,970 кадров/сек
Стандарт вещания : NTSC
Метод сжатия : С потерями
Аудио
Идентификатор : 0 (0x0)
Формат : PCM
Продолжительность : 1 ч. 25 м.
Каналы : 2 канала
Частота : 48,0 КГц
Текст
Идентификатор : 32 (0x20)
Формат : RLE
Формат/Информация : Run-length encoding
Битовая глубина : 2 бит
Язык : Japanese
Меню
Продолжительность : 1 ч. 25 м.
00:00:00.000 : Chapter 1
00:04:21.700 : Chapter 2
00:11:01.366 : Chapter 3
00:14:51.299 : Chapter 4
00:19:25.265 : Chapter 5
00:24:55.565 : Chapter 6
00:30:17.931 : Chapter 7
00:40:27.397 : Chapter 8
00:44:14.763 : Chapter 9
00:49:21.529 : Chapter 10
00:54:15.562 : Chapter 11
01:03:31.928 : Chapter 12
01:08:30.161 : Chapter 13
01:15:03.127 : Chapter 14
01:18:55.293 : Chapter 15
01:23:35.326 : Chapter 16
List (Audio) : 0
List (Subtitles 4/3) : 0
List (Subtitles Wide) : 0
List (Subtitles Letterbox) : 0
List (Subtitles Pan&Scan) : 0
Общее
Полное имя : D:\tltorrent загрузки\Ozzy Osbourne-The Ultimate Ozzy\VTS_01_0.IFO
Формат : DVD Video
Профиль формата : Program
Размер файла : 66,0 Кбайт
Продолжительность : 1 ч. 25 м.
Режим общего битрейта : Переменный
Общий поток : 104 бит/сек
Видео
Идентификатор : 224 (0xE0)
Формат : MPEG Video
Версия формата : Version 2
Продолжительность : 1 ч. 25 м.
Вид битрейта : Переменный
Ширина : 720 пикселей
Высота : 480 пикселей
Соотношение сторон : 4:3
Частота кадров : 29,970 кадров/сек
Стандарт вещания : NTSC
Метод сжатия : С потерями
Аудио
Идентификатор : 0 (0x0)
Формат : PCM
Продолжительность : 1 ч. 25 м.
Каналы : 2 канала
Частота : 48,0 КГц
Текст
Идентификатор : 32 (0x20)
Формат : RLE
Формат/Информация : Run-length encoding
Битовая глубина : 2 бит
Язык : Japanese
Меню
Продолжительность : 1 ч. 25 м.
00:00:00.000 : Chapter 1
00:04:21.700 : Chapter 2
00:11:01.366 : Chapter 3
00:14:51.299 : Chapter 4
00:19:25.265 : Chapter 5
00:24:55.565 : Chapter 6
00:30:17.931 : Chapter 7
00:40:27.397 : Chapter 8
00:44:14.763 : Chapter 9
00:49:21.529 : Chapter 10
00:54:15.562 : Chapter 11
01:03:31.928 : Chapter 12
01:08:30.161 : Chapter 13
01:15:03.127 : Chapter 14
01:18:55.293 : Chapter 15
01:23:35.326 : Chapter 16
List (Audio) : 0
List (Subtitles 4/3) : 0
List (Subtitles Wide) : 0
List (Subtitles Letterbox) : 0
List (Subtitles Pan&Scan) : 0
Общее
Полное имя : D:\tltorrent загрузки\Ozzy Osbourne-The Ultimate Ozzy\VTS_01_0.VOB
Формат : MPEG-PS
Размер файла : 21,3 Мбайт
Продолжительность : 29 с.
Режим общего битрейта : Переменный
Общий поток : 6148 Кбит/сек
Видео
Идентификатор : 224 (0xE0)
Формат : MPEG Video
Версия формата : Version 2
Профиль формата : [email protected]
Параметр BVOP формата : Да
Параметр матрицы формата : Выборочная
Продолжительность : 29 с.
Вид битрейта : Переменный
Битрейт : 6026 Кбит/сек
Ширина : 720 пикселей
Высота : 480 пикселей
Соотношение сторон : 4:3
Частота кадров : 29,970 кадров/сек
Стандарт вещания : NTSC
Цветовое пространство : YUV
Субдискретизация насыщенности : 4:2:0
Битовая глубина : 8 бит
Тип развёртки : Чересстрочная
Метод сжатия : С потерями
Бит/(Пиксели*Кадры) : 0.582
Размер потока : 20,9 Мбайт (98%)
Основные цвета : SMPTE 170M
Характеристики трансфера : SMPTE 170M
Коэффициенты матрицы : SMPTE 170M
Текст
Идентификатор : 189 (0xBD)-32 (0x20)
Формат : RLE
Формат/Информация : Run-length encoding
Режим смешивания : DVD-Video
Меню
Общее
Полное имя : D:\tltorrent загрузки\Ozzy Osbourne-The Ultimate Ozzy\VTS_01_1.VOB
Формат : MPEG-PS
Размер файла : 1024 Мбайт
Продолжительность : 14 м.
Общий поток : 9716 Кбит/сек
Видео
Идентификатор : 224 (0xE0)
Формат : MPEG Video
Версия формата : Version 2
Профиль формата : [email protected]
Параметр BVOP формата : Да
Параметр матрицы формата : Выборочная
Продолжительность : 14 м.
Битрейт : 8000 Кбит/сек
Ширина : 720 пикселей
Высота : 480 пикселей
Соотношение сторон : 4:3
Частота кадров : 29,970 кадров/сек
Стандарт вещания : NTSC
Цветовое пространство : YUV
Субдискретизация насыщенности : 4:2:0
Битовая глубина : 8 бит
Тип развёртки : Чересстрочная
Порядок развёртки : Верхнее поле первое
Метод сжатия : С потерями
Бит/(Пиксели*Кадры) : 0.772
Размер потока : 842 Мбайт (82%)
Аудио
Идентификатор : 189 (0xBD)-160 (0xA0)
Формат : PCM
Параметр Endianness формата : Big
Параметр Sign формата : Signed
Режим смешивания : DVD-Video
Продолжительность : 14 м.
Вид битрейта : Постоянный
Битрейт : 1536 Кбит/сек
Каналы : 2 канала
Частота : 48,0 КГц
Битовая глубина : 16 бит
Размер потока : 162 Мбайт (16%)
Текст
Идентификатор : 189 (0xBD)-32 (0x20)
Формат : RLE
Формат/Информация : Run-length encoding
Режим смешивания : DVD-Video
Меню
Общее
Полное имя : D:\tltorrent загрузки\Ozzy Osbourne-The Ultimate Ozzy\VTS_01_2.VOB
Формат : MPEG-PS
Размер файла : 1024 Мбайт
Продолжительность : 14 м.
Общий поток : 9715 Кбит/сек
Видео
Идентификатор : 224 (0xE0)
Формат : MPEG Video
Версия формата : Version 2
Профиль формата : [email protected]
Параметр BVOP формата : Да
Параметр матрицы формата : Выборочная
Продолжительность : 14 м.
Битрейт : 8000 Кбит/сек
Ширина : 720 пикселей
Высота : 480 пикселей
Соотношение сторон : 4:3
Частота кадров : 29,970 кадров/сек
Стандарт вещания : NTSC
Цветовое пространство : YUV
Субдискретизация насыщенности : 4:2:0
Битовая глубина : 8 бит
Тип развёртки : Чересстрочная
Порядок развёртки : Верхнее поле первое
Метод сжатия : С потерями
Бит/(Пиксели*Кадры) : 0.772
Размер потока : 841 Мбайт (82%)
Аудио
Идентификатор : 189 (0xBD)-160 (0xA0)
Формат : PCM
Параметр Endianness формата : Big
Параметр Sign формата : Signed
Режим смешивания : DVD-Video
Продолжительность : 14 м.
Вид битрейта : Постоянный
Битрейт : 1536 Кбит/сек
Каналы : 2 канала
Частота : 48,0 КГц
Битовая глубина : 16 бит
Задержка видео : -679 мс.
Размер потока : 162 Мбайт (16%)
Текст
Идентификатор : 189 (0xBD)-32 (0x20)
Формат : RLE
Формат/Информация : Run-length encoding
Режим смешивания : DVD-Video
Меню
Общее
Полное имя : D:\tltorrent загрузки\Ozzy Osbourne-The Ultimate Ozzy\VTS_01_3.VOB
Формат : MPEG-PS
Размер файла : 1024 Мбайт
Продолжительность : 14 м.
Общий поток : 9715 Кбит/сек
Видео
Идентификатор : 224 (0xE0)
Формат : MPEG Video
Версия формата : Version 2
Профиль формата : [email protected]
Параметр BVOP формата : Да
Параметр матрицы формата : Выборочная
Параметр GOP формата : M=3, N=15
Продолжительность : 14 м.
Битрейт : 8000 Кбит/сек
Ширина : 720 пикселей
Высота : 480 пикселей
Соотношение сторон : 4:3
Частота кадров : 29,970 кадров/сек
Стандарт вещания : NTSC
Цветовое пространство : YUV
Субдискретизация насыщенности : 4:2:0
Битовая глубина : 8 бит
Тип развёртки : Чересстрочная
Порядок развёртки : Верхнее поле первое
Метод сжатия : С потерями
Бит/(Пиксели*Кадры) : 0.772
Размер потока : 841 Мбайт (82%)
Аудио
Идентификатор : 189 (0xBD)-160 (0xA0)
Формат : PCM
Параметр Endianness формата : Big
Параметр Sign формата : Signed
Режим смешивания : DVD-Video
Продолжительность : 14 м.
Вид битрейта : Постоянный
Битрейт : 1536 Кбит/сек
Каналы : 2 канала
Частота : 48,0 КГц
Битовая глубина : 16 бит
Задержка видео : -475 мс.
Размер потока : 162 Мбайт (16%)
Меню
Общее
Полное имя : D:\tltorrent загрузки\Ozzy Osbourne-The Ultimate Ozzy\VTS_01_4.VOB
Формат : MPEG-PS
Размер файла : 1024 Мбайт
Продолжительность : 14 м.
Общий поток : 9716 Кбит/сек
Видео
Идентификатор : 224 (0xE0)
Формат : MPEG Video
Версия формата : Version 2
Профиль формата : [email protected]
Параметр BVOP формата : Да
Параметр матрицы формата : Выборочная
Параметр GOP формата : M=3, N=15
Продолжительность : 14 м.
Битрейт : 8000 Кбит/сек
Ширина : 720 пикселей
Высота : 480 пикселей
Соотношение сторон : 4:3
Частота кадров : 29,970 кадров/сек
Стандарт вещания : NTSC
Цветовое пространство : YUV
Субдискретизация насыщенности : 4:2:0
Битовая глубина : 8 бит
Тип развёртки : Чересстрочная
Порядок развёртки : Верхнее поле первое
Метод сжатия : С потерями
Бит/(Пиксели*Кадры) : 0.772
Размер потока : 841 Мбайт (82%)
Аудио
Идентификатор : 189 (0xBD)-160 (0xA0)
Формат : PCM
Параметр Endianness формата : Big
Параметр Sign формата : Signed
Режим смешивания : DVD-Video
Продолжительность : 14 м.
Вид битрейта : Постоянный
Битрейт : 1536 Кбит/сек
Каналы : 2 канала
Частота : 48,0 КГц
Битовая глубина : 16 бит
Задержка видео : -815 мс.
Размер потока : 162 Мбайт (16%)
Текст
Идентификатор : 189 (0xBD)-32 (0x20)
Формат : RLE
Формат/Информация : Run-length encoding
Режим смешивания : DVD-Video
Меню
Общее
Полное имя : D:\tltorrent загрузки\Ozzy Osbourne-The Ultimate Ozzy\VTS_01_5.VOB
Формат : MPEG-PS
Размер файла : 1024 Мбайт
Продолжительность : 14 м.
Общий поток : 9715 Кбит/сек
Видео
Идентификатор : 224 (0xE0)
Формат : MPEG Video
Версия формата : Version 2
Профиль формата : [email protected]
Параметр BVOP формата : Да
Параметр матрицы формата : Выборочная
Параметр GOP формата : M=1, N=15
Продолжительность : 14 м.
Битрейт : 8000 Кбит/сек
Ширина : 720 пикселей
Высота : 480 пикселей
Соотношение сторон : 4:3
Частота кадров : 29,970 кадров/сек
Стандарт вещания : NTSC
Цветовое пространство : YUV
Субдискретизация насыщенности : 4:2:0
Битовая глубина : 8 бит
Тип развёртки : Чересстрочная
Порядок развёртки : Верхнее поле первое
Метод сжатия : С потерями
Бит/(Пиксели*Кадры) : 0.772
Размер потока : 841 Мбайт (82%)
Аудио
Идентификатор : 189 (0xBD)-160 (0xA0)
Формат : PCM
Параметр Endianness формата : Big
Параметр Sign формата : Signed
Режим смешивания : DVD-Video
Продолжительность : 14 м.
Вид битрейта : Постоянный
Битрейт : 1536 Кбит/сек
Каналы : 2 канала
Частота : 48,0 КГц
Битовая глубина : 16 бит
Задержка видео : -617 мс.
Размер потока : 162 Мбайт (16%)
Меню
Общее
Полное имя : D:\tltorrent загрузки\Ozzy Osbourne-The Ultimate Ozzy\VTS_01_6.VOB
Формат : MPEG-PS
Размер файла : 849 Мбайт
Продолжительность : 12 м.
Общий поток : 9649 Кбит/сек
Видео
Идентификатор : 224 (0xE0)
Формат : MPEG Video
Версия формата : Version 2
Профиль формата : [email protected]
Параметр BVOP формата : Да
Параметр матрицы формата : Выборочная
Продолжительность : 12 м.
Битрейт : 8000 Кбит/сек
Ширина : 720 пикселей
Высота : 480 пикселей
Соотношение сторон : 4:3
Частота кадров : 29,970 кадров/сек
Стандарт вещания : NTSC
Цветовое пространство : YUV
Субдискретизация насыщенности : 4:2:0
Битовая глубина : 8 бит
Тип развёртки : Чересстрочная
Порядок развёртки : Верхнее поле первое
Метод сжатия : С потерями
Бит/(Пиксели*Кадры) : 0.772
Размер потока : 697 Мбайт (82%)
Аудио
Идентификатор : 189 (0xBD)-160 (0xA0)
Формат : PCM
Параметр Endianness формата : Big
Параметр Sign формата : Signed
Режим смешивания : DVD-Video
Продолжительность : 12 м.
Вид битрейта : Постоянный
Битрейт : 1536 Кбит/сек
Каналы : 2 канала
Частота : 48,0 КГц
Битовая глубина : 16 бит
Задержка видео : -727 мс.
Размер потока : 135 Мбайт (16%)
Меню
-Качество: DVD9
Формат: DVD Video
Видео: Mpeg-2 NTSC 4:3 (720x480) VBR
Аудио: Not specified (LinearPCM, 2 ch) 1536 Kbps-
Рейтинг@Mail.ru