Тебе конец! / You're Next (Адам Вингард / Adam Wingard) [2013 г., ужасы, триллер, комедия, BDRip, 720p] Dub Sub Rus, Eng + Original (Eng)

 

Создавать темы 04-Фев-2014 01:55

-Тебе конец! / You're Next
«Вы уверены, что закрыли дверь?»
-- Производство: США | HanWay Films, Snoot Entertainment
Год выпуска: 2013 г.
Жанр: ужасы, триллер, комедия
Продолжительность: 01:34:23
Мировая премьера: 10 сентября 2011
Российская премьера: 29 августа 2013, «Вольга»
Дата выхода DVD: 30 января 2014, «Вольга»
Перевод: Профессиональный (полное дублирование)
Оригинальный аудиопоток: английский
Режиссер: Адам Вингард / Adam Wingard-В ролях: Шарни Винсон, Николас Туччи, Венди Гленн, Эй Джей Боуэн, Джо Сванберг, Барбара Крэмптон, Роб Моран, Маргарет Лэни, Эми Саймец, Тай Уэст-Описание: Банда маньяков в звериных масках, вооруженных топорами и арбалетами, вторгается в загородный дом семьи Дэвисон. Жертвы оказываются в западне... Неожиданно среди них находится один достойный противник, способный дать отпор убийцам.-Качество видео: BDRip
Контейнер: MKV
Стандарт разрешения: 720p
Видео кодек: H.264/AVC
Аудио кодек: AC3, DTS
Видео: 1280x534, 23.976 fps, ~5018 Kbps avg
Аудио: (Rus) AC3, 48 kHz, 3/2 (L,C,R,l,r) + LFE ch, ~448.00 kbps
Аудио #2: (Eng) DTS, 48 kHz, 3/2 (L,C,R,l,r) + LFE ch, ~1510.00 kbps
Cубтитры: русские (full), английские, английские (SDH)

Media Info

General
Complete name                    : X:\Uploads\Pirat.Ca\Youre.Next.2013.720p.BluRay.x264.Rus.Eng.mkv
Format                           : Matroska
File size                        : 4.69 GiB
Duration                         : 1h 34mn
Overall bit rate                 : 7 117 Kbps
Movie name                       : Release for PIRAT.CA
Encoded date                     : UTC 2014-02-03 14:02:28
Writing application              : mkvmerge v6.0.0 ('Coming Up For Air') built on Jan 20 2013 09:52:00
Writing library                  : libebml v1.3.0 + libmatroska v1.4.0
Video
ID                               : 1
Format                           : AVC
Format/Info                      : Advanced Video Codec
Format profile                   : [email protected]
Format settings, CABAC           : Yes
Format settings, ReFrames        : 12 frames
Muxing mode                      : Container [email protected]
Codec ID                         : V_MPEG4/ISO/AVC
Duration                         : 1h 34mn
Bit rate                         : 5 018 Kbps
Width                            : 1 280 pixels
Height                           : 534 pixels
Display aspect ratio             : 2.35:1
Frame rate                       : 23.976 fps
Color space                      : YUV
Chroma subsampling               : 4:2:0
Bit depth                        : 8 bits
Scan type                        : Progressive
Bits/(Pixel*Frame)               : 0.306
Stream size                      : 3.31 GiB (71%)
Title                            : Youre Next (2013)
Writing library                  : x264 core 140 r2377 1ca7bb9
Encoding settings                : cabac=1 / ref=12 / deblock=1:-3:-3 / analyse=0x3:0x133 / me=umh / subme=10 / psy=1 / psy_rd=1.05:0.00 / mixed_ref=1 / me_range=48 / chroma_me=1 / trellis=2 / 8x8dct=1 / cqm=0 / deadzone=21,11 / fast_pskip=0 / chroma_qp_offset=-2 / threads=6 / lookahead_threads=1 / sliced_threads=0 / nr=0 / decimate=0 / interlaced=0 / bluray_compat=0 / constrained_intra=0 / bframes=9 / b_pyramid=2 / b_adapt=2 / b_bias=0 / direct=3 / weightb=1 / open_gop=0 / weightp=2 / keyint=250 / keyint_min=23 / scenecut=40 / intra_refresh=0 / rc_lookahead=100 / rc=crf / mbtree=0 / crf=15.0 / qcomp=0.78 / qpmin=0 / qpmax=69 / qpstep=4 / vbv_maxrate=50000 / vbv_bufsize=62500 / crf_max=0.0 / nal_hrd=none / filler=0 / ip_ratio=1.30 / pb_ratio=1.20 / aq=1:0.72
Language                         : English
Audio #1
ID                               : 2
Format                           : AC-3
Format/Info                      : Audio Coding 3
Mode extension                   : CM (complete main)
Codec ID                         : A_AC3
Duration                         : 1h 34mn
Bit rate mode                    : Constant
Bit rate                         : 448 Kbps
Channel(s)                       : 6 channels
Channel positions                : Front: L C R, Side: L R, LFE
Sampling rate                    : 48.0 KHz
Bit depth                        : 16 bits
Stream size                      : 302 MiB (6%)
Title                            : DUB R5
Language                         : Russian
Audio #2
ID                               : 3
Format                           : DTS
Format/Info                      : Digital Theater Systems
Codec ID                         : A_DTS
Duration                         : 1h 34mn
Bit rate mode                    : Constant
Bit rate                         : 1 510 Kbps
Channel(s)                       : 6 channels
Channel positions                : Front: L C R, Side: L R, LFE
Sampling rate                    : 48.0 KHz
Bit depth                        : 24 bits
Stream size                      : 1 019 MiB (21%)
Language                         : English
Text #1
ID                               : 4
Format                           : UTF-8
Codec ID                         : S_TEXT/UTF8
Codec ID/Info                    : UTF-8 Plain Text
Title                            : full
Language                         : Russian
Text #2
ID                               : 5
Format                           : UTF-8
Codec ID                         : S_TEXT/UTF8
Codec ID/Info                    : UTF-8 Plain Text
Language                         : English
Text #3
ID                               : 6
Format                           : UTF-8
Codec ID                         : S_TEXT/UTF8
Codec ID/Info                    : UTF-8 Plain Text
Title                            : SDH
Language                         : English
Menu
00:00:00.000                     : en:00:00:00.000
00:04:26.016                     : en:00:04:26.016
00:15:08.366                     : en:00:15:08.366
00:22:49.868                     : en:00:22:49.868
00:33:38.850                     : en:00:33:38.850
00:44:59.822                     : en:00:44:59.822
00:54:07.995                     : en:00:54:07.995
01:01:25.682                     : en:01:01:25.682
01:11:12.018                     : en:01:11:12.018
01:17:46.078                     : en:01:17:46.078
01:24:08.126                     : en:01:24:08.126
01:31:24.979                     : en:01:31:24.979

Скриншоты

Яндекс.Метрика
Рейтинг@Mail.ru