Море (2012) DVDRip | Лицензия

 

Создавать темы 03-Фев-2014 16:55

Жанр: драма
Год выпуска: 2012
Продолжительность: 01:18:45
Язык: Русский
Режиссёр: Александра Стреляная
В ролях: Таисия Крамми, Илья Ригин, Людмила Шевченко
Описание: Посреди шумной московской жизни ему всегда снилось незыблемое Северное море. На ветреном побережье она грезила небом и чем-то несбыточным. Однажды он решился и вырвался из суеты столицы. Тогда они наконец встретились. В этот момент началось их лето, наполненное сомнениями, радостями и приключениями, свойственными одной только юности. Ему как режиссеру во всем видится кино. Ей наивно кружит голову первая любовь. И лишь жители берега с любопытством наблюдают за тем, как крепнет их чувство. На прекраснейшем месте земли, Кольском полуострове, они обретут все, что искали среди дикой природы.

Сэмпл: http://multi-up.com/867511
Файл
Формат: AVI (XviD)
Качество: DVDRip
Видео: 2026 kb/s, 720x304
Аудио: AC3, 448 kb/s (6 ch)

MediaInfo

Общее
Полное имя : K:More.2012.O.DVDRip.avi
Формат : AVI
Формат/Информация : Audio Video Interleave
Размер файла : 1,37 Гбайт
Продолжительность : 1 ч. 18 м.
Общий поток : 2484 Кбит/сек
Программа кодирования : VirtualDubMod 1.5.10.3 | www.virtualdub-fr.org || (build 2550/release)
Библиотека кодирования : VirtualDubMod build 2550/release
Видео
Идентификатор : 0
Формат : MPEG-4 Visual
Профиль формата : Advanced [email protected]
Параметр BVOP формата : 2
Параметр QPel формата : Нет
Параметр GMC формата : Без точки перехода
Параметр матрицы формата : Default (MPEG)
Идентификатор кодека : XVID
Идентификатор кодека/Подсказка : XviD
Продолжительность : 1 ч. 18 м.
Битрейт : 2027 Кбит/сек
Ширина : 720 пикселей
Высота : 304 пикселя
Соотношение сторон : 2,35:1
Частота кадров : 25,000 кадров/сек
Цветовое пространство : YUV
Субдискретизация насыщенности : 4:2:0
Битовая глубина : 8 бит
Тип развёртки : Прогрессивная
Метод сжатия : С потерями
Бит/(Пиксели*Кадры) : 0.370
Размер потока : 1,11 Гбайт (82%)
Библиотека кодирования : XviD 1.2.1 (UTC 2008-12-04)
Аудио
Идентификатор : 1
Формат : AC-3
Формат/Информация : Audio Coding 3
Расширение режима : CM (complete main)
Параметр Endianness формата : Big
Идентификатор кодека : 2000
Продолжительность : 1 ч. 18 м.
Вид битрейта : Постоянный
Битрейт : 448 Кбит/сек
Каналы : 6 каналов
Расположение каналов : Front: L C R, Side: L R, LFE
Частота : 48,0 КГц
Битовая глубина : 16 бит
Метод сжатия : С потерями
Размер потока : 252 Мбайт (18%)
Выравнивание : Разделение по промежуткам
Продолжительность промежутка : 40 мс. (1,00 видеокадр)
Время предзагрузки промежутка : 500 мс.

Скриншоты

Яндекс.Метрика
Рейтинг@Mail.ru