Любовь в большом городе (Марюс Вайсберг) [2009 г., фэнтези, мелодрама, комедия, BDRip] [Jolly Roger]

 

Создавать темы 03-Фев-2014 15:55

-Любовь в большом городе-- Год выпуска: 2009 г.
Производство: Россия, Украина
Жанр: фэнтези, мелодрама, комедия
Продолжительность: 01:27:53-Режиссер: Марюс Вайсберг-В ролях: Вера Брежнева, Алексей Чадов, Настя Задорожная, Светлана Ходченкова, Вилле Хаапасало, Владимир Зеленский, Олеся Железняк, Алика Смехова, Лиза Арзамасова, Филипп Киркоров-Описание: Действие фильма происходит в одном из самых романтичных мегаполисов мира — Нью-Йорке. Три друга Артем, Игорь и Оле, настоящий «русский» финн, в народе «Сауна» работают на чужбине, а в свободное от работы время отрываются, «как взрослые»: ходят в сауну, в стриптиз-бары, крутят короткие и ни к чему не обязывающие романы. Секс для них давно превратился в забег на короткие дистанции, соблазненные женщины — в трофеи, а триумфальные победы — главная тема обсуждения во время каждого мальчишника…
Но однажды случай вмешивается в их устоявшуюся, беспечную, разгильдяйскую жизнь… На очередной вечеринке в одном из клубов человек странного вида поднимает бокал и произносит тост. Пройдет совсем немного времени, и все трое обнаружат пренеприятнейшую перемену — они больше не могут заниматься сексом.
Как вернуть мужскую силу? Корень женьшеня? Виагра? Тайский массаж? Консультации сексопатолога? Ничто не спасает. За что? Почему? И почему так рано? И почему именно мы? С этими вопросами наши герои в отчаянии бегают по специалистам…
В конце концов, они находят того самого человека с вечеринки, и выясняют, что тот, применив свои мистические способности, «закодировал» их от беспорядочных связей. Их спасет только одно средство. Любовь. И секс будет. Но только с любимой женщиной. Осталось дело за малым — найти ее…
--Качество видео: BDRip
Контейнер: AVI
Видео кодек: XviD
Аудио кодек: AC3
Видео: 720x304, 23.976 fps, 1276 kbps avg, 0.243 bit/pixel
Аудио: 48 kHz, AC3 Dolby Digital, 3/2 (L,C,R,l,r) + LFE ch, ~448 kbps-

Media Info

Общее
Полное имя : C:\Users\Ромик\Documents\[R.G. Jolly Roger]\Любовь в большом городе\Lubov.V.Bolshom.Gorode.2009.BDRip.JRG.avi
Формат : AVI
Формат/Информация : Audio Video Interleave
Размер файла : 1,45 Гбайт
Продолжительность : 1 ч. 27 м.
Общий поток : 2369 Кбит/сек
Название фильма : Lubov.V.Bolshom.Gorode.2009.BDRip.JRG.[pirat.ca]
Программа кодирования : VirtualDubMod 1.5.10.2 (build 2540/release)
Примечание : http://pirat.ca
Видео
Идентификатор : 0
Формат : MPEG-4 Visual
Профиль формата : Advanced [email protected]
Параметр BVOP формата : 2
Параметр QPel формата : Нет
Параметр GMC формата : Без точки перехода
Параметр матрицы формата : Default (MPEG)
Идентификатор кодека : XVID
Идентификатор кодека/Подсказка : XviD
Продолжительность : 1 ч. 27 м.
Битрейт : 1912 Кбит/сек
Ширина : 720 пикселей
Высота : 304 пикселя
Соотношение сторон : 2,35:1
Частота кадров : 23,976 кадра/сек
Цветовое пространство : YUV
Субдискретизация насыщенности : 4:2:0
Битовая глубина : 8 бит
Тип развёртки : Прогрессивная
Метод сжатия : С потерями
Бит/(Пиксели*Кадры) : 0.364
Размер потока : 1,17 Гбайт (81%)
Библиотека кодирования : XviD 1.2.0.dev47 (UTC 2006-11-01)
Аудио
Идентификатор : 1
Формат : AC-3
Формат/Информация : Audio Coding 3
Расширение режима : CM (complete main)
Параметр Endianness формата : Big
Идентификатор кодека : 2000
Продолжительность : 1 ч. 27 м.
Вид битрейта : Постоянный
Битрейт : 448 Кбит/сек
Каналы : 6 каналов
Расположение каналов : Front: L C R, Side: L R, LFE
Частота : 48,0 КГц
Битовая глубина : 16 бит
Метод сжатия : С потерями
Размер потока : 282 Мбайт (19%)
Выравнивание : Разделение по промежуткам
Продолжительность промежутка : 42 мс. (1,00 видеокадр)
Время предзагрузки промежутка : 500 мс.
-

Скриншоты

--
Яндекс.Метрика
Рейтинг@Mail.ru