День сурка / Groundhog Day (Харольд Рэмис / Harold Ramis) [1993 г., комедия, фэнтези, мелодрама, BDRip-AVC] AVO (Гаврилов, Визгунов / Мишин, Матрос)

 

Создавать темы 03-Фев-2014 15:53

День сурка / Groundhog Day«He's having the day of his life...over and over again»- Год выпуска: 1993
Мировая премьера: 12 февраля 1993 (США)
Производство: США, Columbia Pictures Corporation
Жанр: комедия, фэнтези, мелодрама
Продолжительность: 01:41:04
Перевод: Авторский (одноголосый) Андрей Гаврилов, Сергей Визгунов - Алексей Мишин, Матрос
Субтитры: 5 х Русские, английские (SRT)
Режиссер: Харольд Рэмис / Harold Ramis
В ролях: Билл Мюррей / Bill Murray, Энди МакДауэлл / Andie MacDowell, Крис Эллиотт / Chris Elliott, Стивен Тоболовски / Stephen Tobolowsky, Рик Дакомман / Rick Ducommun, Робин Дьюк / Robin Duke, Марита Герахти / Marita Geraghty, Энджела Пэйтон / Angela Paton, Брайан Дойл-Мюррей / Brian Doyle-Murray, Рик Овертон / Rick Overton
Описание: Телевизионный комментатор Фил Коннорс каждый год приезжает в маленький городок в штате Пенсильвания на празднование Дня сурка. Но на этот раз веселье рискует зайти слишком далеко. Время сыграло с ним злую шутку: оно взяло да и остановилось.
Теперь на календаре Фила чернеет одна и та же дата — 2 февраля, из которой он никак не может выбраться. Неунывающий ведущий пытается извлечь выгоду из своего комичного положения: впереди у него уйма времени и безмятежное предсказуемое будущее.
Отныне с ним не случится ничего плохого… и ничего хорошего. У Фила осталась одна заветная мечта, простая и незамысловатая — 3 февраля…


Источник/Качество: BDRip-AVC
Контейнер: MKV
Видео кодек: MPEG-4 AVC / h.264
Видео: 1056x572 / 2992 kbps / 23,976 fps / 16:9 / High Profile 4.0
Аудио#1: 48 kHz, AC3 Dolby Digital, 3/2 (L,C,R,l,r) + LFE ch, ~448 kbps avg - Гаврилов;
Аудио#2: 48 kHz, AC3 Dolby Digital, 2/0 (L,R) ch, ~192.00 kbps avg - Визгунов-Мишин;
Аудио#3: 48 kHz, AC3 Dolby Digital, 2/0 (L,R) ch, ~192.00 kbps avg - Матрос;

x264-log

avs [info]: 1056x572p 1:1 @ 24000/1001 fps (cfr)
x264 [info]: using SAR=1/1
x264 [info]: using cpu capabilities: MMX2 SSE2Fast SSSE3 FastShuffle SSE4.2
x264 [info]: profile High, level 4.0
x264 [info]: frame I:947 Avg QP:18.04 size: 79569 PSNR Mean Y:45.70 U:49.43 V:50.22 Avg:46.67 Global:46.33
x264 [info]: frame P:27568 Avg QP:19.45 size: 32504 PSNR Mean Y:44.06 U:48.39 V:49.25 Avg:45.13 Global:44.72
x264 [info]: frame B:116868 Avg QP:21.63 size: 11095 PSNR Mean Y:42.98 U:48.07 V:49.01 Avg:44.16 Global:43.85
x264 [info]: consecutive B-frames: 0.5% 1.0% 2.9% 16.7% 19.5% 38.2% 9.3% 5.9% 2.5% 1.2% 0.9% 0.9% 0.4%
x264 [info]: mb I I16..4: 4.8% 79.6% 15.6%
x264 [info]: mb P I16..4: 0.5% 12.7% 1.2% P16..4: 43.8% 29.1% 7.2% 0.4% 0.3% skip: 4.8%
x264 [info]: mb B I16..4: 0.0% 0.9% 0.1% B16..8: 43.3% 13.8% 3.9% direct: 6.4% skip:31.6% L0:43.4% L1:43.5% BI:13.1%
x264 [info]: 8x8 transform intra:86.8% inter:58.3%
x264 [info]: direct mvs spatial:100.0% temporal:0.0%
x264 [info]: coded y,uvDC,uvAC intra: 94.5% 82.6% 57.3% inter: 31.0% 19.0% 1.5%
x264 [info]: i16 v,h,dc,p: 53% 15% 14% 17%
x264 [info]: i8 v,h,dc,ddl,ddr,vr,hd,vl,hu: 10% 8% 11% 9% 13% 13% 11% 12% 12%
x264 [info]: i4 v,h,dc,ddl,ddr,vr,hd,vl,hu: 14% 8% 4% 9% 15% 15% 13% 12% 11%
x264 [info]: i8c dc,h,v,p: 42% 24% 20% 14%
x264 [info]: Weighted P-Frames: Y:7.3%
x264 [info]: ref P L0: 39.0% 12.7% 19.0% 6.1% 6.2% 3.7% 4.1% 2.0% 2.2% 1.6% 1.9% 1.5% 0.1% 0.0%
x264 [info]: ref B L0: 68.5% 12.6% 6.2% 3.5% 2.5% 2.2% 1.7% 1.1% 0.9% 0.6% 0.2%
x264 [info]: ref B L1: 92.2% 7.8%
x264 [info]: SSIM Mean Y:0.9735036 (15.768db)
x264 [info]: PSNR Mean Y:43.203 U:48.136 V:49.067 Avg:44.359 Global:44.013 kb/s:2992.33
encoded 145383 frames, 6.00 fps, 2992.33 kb/s

Media Info

Формат : Matroska
Версия формата : Version 4 / Version 2
Размер файла : 2,66 Гбайт
Продолжительность : 1 ч. 41 м.
Общий поток : 3763 Кбит/сек
Название фильма : Groundhog Day.BDRip.Gavrilov.Vizgunov-Mishin.Matros
Дата кодирования : UTC 2014-02-02 16:25:44
Программа кодирования : mkvmerge v6.7.0 ('Back to the Ground') 32bit built on Jan 8 2014 15:03:17
Библиотека кодирования : libebml v1.3.0 + libmatroska v1.4.1
Attachment : Yes
Видео
Идентификатор : 1
Формат : AVC
Формат/Информация : Advanced Video Codec
Профиль формата : [email protected]
Параметр CABAC формата : Да
Параметр ReFrames формата : 12 кадров
Идентификатор кодека : V_MPEG4/ISO/AVC
Продолжительность : 1 ч. 41 м.
Битрейт : 2921 Кбит/сек
Ширина : 1056 пикселей
Высота : 572 пикселя
Соотношение сторон : 1,85:1
Режим частоты кадров : Постоянный
Частота кадров : 23,976 кадра/сек
Цветовое пространство : YUV
Субдискретизация насыщенности : 4:2:0
Битовая глубина : 8 бит
Тип развёртки : Прогрессивная
Бит/(Пиксели*Кадры) : 0.202
Размер потока : 2,06 Гбайт (78%)
Заголовок : Groundhog Day (Gavrilov, Vizgunov-Mishin,Matros) [BDRip]
Библиотека кодирования : x264 core 107 r1745kMod 4785e8e
Настройки программы : cabac=1 / ref=12 / deblock=1:-2:-1 / analyse=0x3:0x133 / me=umh / subme=10 / psy=1 / psy_rd=1.00:0.10 / mixed_ref=1 / me_range=36 / chroma_me=1 / trellis=2 / 8x8dct=1 / cqm=0 / deadzone=21,11 / fast_pskip=1 / chroma_qp_offset=-3 / threads=12 / sliced_threads=0 / nr=0 / decimate=1 / interlaced=0 / constrained_intra=0 / bframes=12 / b_pyramid=2 / b_adapt=2 / b_bias=0 / direct=3 / weightb=1 / open_gop=0 / weightp=2 / keyint=250 / keyint_min=23 / scenecut=40 / intra_refresh=0 / rc=crf / mbtree=0 / crf=18.7000 / qcomp=0.65 / qpmin=10 / qpmax=51 / qpstep=4 / ip_ratio=1.40 / pb_ratio=1.30 / aq=1:0.90
Язык : English
Default : Да
Forced : Нет
Коэффициенты матрицы : BT.709
Аудио #1
Идентификатор : 2
Формат : AC-3
Формат/Информация : Audio Coding 3
Расширение режима : CM (complete main)
Параметр Endianness формата : Big
Идентификатор кодека : A_AC3
Продолжительность : 1 ч. 41 м.
Вид битрейта : Постоянный
Битрейт : 384 Кбит/сек
Каналы : 6 каналов
Расположение каналов : Front: L C R, Side: L R, LFE
Частота : 48,0 КГц
Битовая глубина : 16 бит
Метод сжатия : С потерями
Размер потока : 278 Мбайт (10%)
Заголовок : Gavrilov
Язык : Russian
Default : Да
Forced : Нет
Аудио #2
Идентификатор : 3
Формат : AC-3
Формат/Информация : Audio Coding 3
Расширение режима : CM (complete main)
Параметр Endianness формата : Big
Идентификатор кодека : A_AC3
Продолжительность : 1 ч. 41 м.
Вид битрейта : Постоянный
Битрейт : 192 Кбит/сек
Каналы : 2 канала
Расположение каналов : Front: L R
Частота : 48,0 КГц
Битовая глубина : 16 бит
Метод сжатия : С потерями
Размер потока : 139 Мбайт (5%)
Заголовок : Vizgunov - Mishin
Язык : Russian
Default : Нет
Forced : Нет
Аудио #3
Идентификатор : 4
Формат : AC-3
Формат/Информация : Audio Coding 3
Расширение режима : CM (complete main)
Параметр Endianness формата : Big
Идентификатор кодека : A_AC3
Продолжительность : 1 ч. 41 м.
Вид битрейта : Постоянный
Битрейт : 192 Кбит/сек
Каналы : 2 канала
Расположение каналов : Front: L R
Частота : 48,0 КГц
Битовая глубина : 16 бит
Метод сжатия : С потерями
Размер потока : 139 Мбайт (5%)
Заголовок : Matros
Язык : Russian
Default : Нет
Forced : Нет
Текст #1
Идентификатор : 5
Формат : UTF-8
Идентификатор кодека : S_TEXT/UTF8
Идентификатор кодека/Информация : UTF-8 Plain Text
Заголовок : Alex Raynor
Язык : Russian
Default : Нет
Forced : Нет
Текст #2
Идентификатор : 6
Формат : UTF-8
Идентификатор кодека : S_TEXT/UTF8
Идентификатор кодека/Информация : UTF-8 Plain Text
Заголовок : sunny-sko
Язык : Russian
Default : Нет
Forced : Нет
Текст #3
Идентификатор : 7
Формат : UTF-8
Идентификатор кодека : S_TEXT/UTF8
Идентификатор кодека/Информация : UTF-8 Plain Text
Заголовок : Игорь Гиндин
Язык : Russian
Default : Нет
Forced : Нет
Текст #4
Идентификатор : 8
Формат : UTF-8
Идентификатор кодека : S_TEXT/UTF8
Идентификатор кодека/Информация : UTF-8 Plain Text
Заголовок : GЕLULА & СО
Язык : Russian
Default : Нет
Forced : Нет
Текст #5
Идентификатор : 9
Формат : UTF-8
Идентификатор кодека : S_TEXT/UTF8
Идентификатор кодека/Информация : UTF-8 Plain Text
Заголовок : Лицензия
Язык : Russian
Default : Нет
Forced : Нет
Текст #6
Идентификатор : 10
Формат : UTF-8
Идентификатор кодека : S_TEXT/UTF8
Идентификатор кодека/Информация : UTF-8 Plain Text
Язык : English
Default : Нет
Forced : Нет
Меню
00:00:00.000 : ru:Начало
00:02:38.241 : ru:Новый продюссер
00:03:39.636 : ru:Панксутони
00:07:31.493 : ru:День сурка
00:12:10.313 : ru:Индюшачья Горка
00:18:17.179 : ru:День сурка 2
00:22:30.057 : ru:Индюшачья Горка 2
00:25:20.227 : ru:День сурка 3
00:26:25.918 : ru:Индюшачья Горка 3
00:28:28.206 : ru:Фил обращается за помощью
00:34:32.654 : ru:День сурка 4
00:35:55.320 : ru:Больше не волнуюсь
00:37:59.319 : ru:Фил знакомится с Нэнси
00:38:46.157 : ru:День сурка 5
00:41:00.541 : ru:Ограбление
00:43:17.637 : ru:День сурка 6
00:44:17.864 : ru:Идеальный мужчина
00:57:07.507 : ru:Индюшачья Горка?
01:00:29.292 : ru:Фил похищает Фила
01:06:08.047 : ru:Убеждение Риты
01:15:25.646 : ru:Новый имидж Фила
01:16:47.686 : ru:Приобщение к искусству
01:19:59.294 : ru:История старика
01:23:07.483 : ru:Ангел-хранитель
01:26:28.725 : ru:Рок-маниноff
01:30:03.481 : ru:Фил на продажу
01:32:49.355 : ru:Милый образ
01:34:51.019 : ru:Сегодня уже завтра!

Скриншоты

Яндекс.Метрика
Рейтинг@Mail.ru