Великие тайны. Боги подводных глубин / (Игорь Прокопенко) [2013 г., Документальный, SATRip]

 

Создавать темы 03-Фев-2014 15:52

-Великие тайны. Боги подводных глубин-- Производство: Рен-ТВ
Жанр: Документальный
Год выпуска: 2013 г.
Продолжительность: 00:47:44
Перевод: Не требуется
Оригинальный аудиопоток: русский
Режиссер: Игорь Прокопенко-Описание: Документальный цикл «Великие тайны» основан на научных открытиях, рассекреченных или малоизвестных документах, свидетельствах очевидцев важнейших событий – фактах, которые заставляют нас пересмотреть общепринятую картину мира. Мы приподнимаем завесу над великими тайнами современности и одновременно задаемся новыми вопросами.
В этом выпуске:
Территория Земли на две трети покрыта водой, но и сегодня мы почти ничего не знаем об этом загадочном мире. Кто населяет подводные просторы нашей планеты? Кто пугает подводных исследователей фантастическими чудовищами?-Качество видео: SATRip
Контейнер: AVI
Видео кодек: XviD
Аудио кодек: MP3
Видео: 704x400 (1.76:1), 25 fps, XviD MPEG-4 ~1670 kbps avg, 0.24 bit/pixel
Аудио: 48 kHz, MPEG Layer 3, 2 ch, ~128.00 kbps avg
Cубтитры: отсутствуют

Media Info

General
Complete name : D:\Великие тайны с Игорем Прокопенко. Боги подводных глубин (2013.03.09).avi
Format : AVI
Format/Info : Audio Video Interleave
File size : 617 MiB
Duration : 47mn 43s
Overall bit rate : 1 808 Kbps
Writing application : VirtualDubMod 1.5.10.2 (build 2542/release)
Writing library : VirtualDubMod build 2542/release
Video
ID : 0
Format : MPEG-4 Visual
Format profile : Advanced [email protected]
Format settings, BVOP : Yes
Format settings, QPel : No
Format settings, GMC : No warppoints
Format settings, Matrix : Default (H.263)
Codec ID : XVID
Codec ID/Hint : XviD
Duration : 47mn 43s
Bit rate : 1 670 Kbps
Width : 704 pixels
Height : 400 pixels
Display aspect ratio : 16:9
Frame rate : 25.000 fps
Color space : YUV
Chroma subsampling : 4:2:0
Bit depth : 8 bits
Scan type : Progressive
Compression mode : Lossy
Bits/(Pixel*Frame) : 0.237
Stream size : 570 MiB (92%)
Writing library : XviD 64
Audio
ID : 1
Format : MPEG Audio
Format version : Version 1
Format profile : Layer 3
Mode : Joint stereo
Mode extension : MS Stereo
Codec ID : 55
Codec ID/Hint : MP3
Duration : 47mn 43s
Bit rate mode : Constant
Bit rate : 128 Kbps
Channel count : 2 channels
Sampling rate : 48.0 KHz
Compression mode : Lossy
Stream size : 43.7 MiB (7%)
Alignment : Aligned on interleaves
Interleave, duration : 40 ms (1.00 video frame)
Interleave, preload duration : 504 ms

Скриншот c названием фильма

Скриншоты

Яндекс.Метрика
Рейтинг@Mail.ru