[ Сегодня на трекере фрилич! Идет свободное скачивание без начисления Download ]

Курьер из «Рая» (Михаил Хлебородов) [2013 г., комедия, приключения, DVDRip][Jolly Roger]

 

Создавать темы 03-Фев-2014 11:04

--Курьер из «Рая»--«Рай есть!»-- Производство: Россия, Дирекция Кино, Про-Синема продакшн
Режиссер: Михаил Хлебородов
Жанр: комедия, приключения
Год выпуска: 2013 г.
Продолжительность: 01:28:50--Мировая премьера: 27 ноября 2013
Премьера (РФ): 28 ноября 2013, «WDSSPR»
Дата выхода DVD: 21 января 2014, «CD Land»--В ролях: Евгений Ткачук, Елизавета Боярская, Гоша Куценко, Дмитрий Дюжев, Игорь Скляр, Дмитрий Нагиев, Артем Ткаченко, Екатерина Климова, Екатерина Федулова, Олег Тактаров--Описание: Егор Глазунов работает в криминальной полиции столицы и обладает удивительным даром — «врать с листа». Это умение очень выручает его в далёком маленьком городе, которых на карте России великое множество. Сюда Глазунов отправляется помочь другу детства Артёму — обычному курьеру с необычными принципами, у которого угнали доставшийся ему по странному стечению обстоятельств «Мерседес». Все следы ведут к местному авторитету, подобраться к которому невозможно. Последний шанс — прийти с «проверкой» из «следственного комитета». Сюжет гоголевского «Ревизора» превращается в историю новой России.-- --Качество видео: DVDRip
Контейнер: AVI
Видео кодек: XviD
Аудио кодек: AC3
Видео: 720x400 (1.80:1), 25 fps, XviD build 47 ~2091 kbps avg, 0.29 bit/pixel
Аудио: 48 kHz, AC3 Dolby Digital, 3/2 (L,C,R,l,r) + LFE ch, ~256 kbps
Cубтитры: Отсутствуют

Media Info

Общее
Полное имя : D:\Kuryer.iz.Raya.2013.DVDRip.1.46Gb_JRG.avi
Формат : AVI
Формат/Информация : Audio Video Interleave
Размер файла : 1,46 Гбайт
Продолжительность : 1 ч. 28 м.
Общий поток : 2358 Кбит/сек
Программа кодирования : VirtualDubMod 1.5.10.2 (build 2540/release)
Примечание : The Jolly Roger Release Group by http://pirat.ca
Видео
Идентификатор : 0
Формат : MPEG-4 Visual
Профиль формата : Advanced [email protected]
Параметр BVOP формата : 2
Параметр QPel формата : Нет
Параметр GMC формата : Без точки перехода
Параметр матрицы формата : Default (MPEG)
Идентификатор кодека : XVID
Идентификатор кодека/Подсказка : XviD
Продолжительность : 1 ч. 28 м.
Битрейт : 2092 Кбит/сек
Ширина : 720 пикселей
Высота : 400 пикселей
Соотношение сторон : 16:9
Частота кадров : 25,000 кадров/сек
Цветовое пространство : YUV
Субдискретизация насыщенности : 4:2:0
Битовая глубина : 8 бит
Тип развёртки : Прогрессивная
Метод сжатия : С потерями
Бит/(Пиксели*Кадры) : 0.291
Размер потока : 1,30 Гбайт (89%)
Библиотека кодирования : XviD 1.2.0.dev47 (UTC 2006-11-01)
Аудио
Идентификатор : 1
Формат : AC-3
Формат/Информация : Audio Coding 3
Расширение режима : CM (complete main)
Параметр Endianness формата : Big
Идентификатор кодека : 2000
Продолжительность : 1 ч. 28 м.
Вид битрейта : Постоянный
Битрейт : 256 Кбит/сек
Каналы : 6 каналов
Расположение каналов : Front: L C R, Side: L R, LFE
Частота : 48,0 КГц
Битовая глубина : 16 бит
Метод сжатия : С потерями
Размер потока : 163 Мбайт (11%)
Выравнивание : Разделение по промежуткам
Продолжительность промежутка : 40 мс. (1,00 видеокадр)
Время предзагрузки промежутка : 500 мс.

Скриншоты

Трейлер

Трейлер
Яндекс.Метрика
Рейтинг@Mail.ru