[ Сегодня на трекере фрилич! Идет свободное скачивание без начисления Download ]

Manowar - The Absolute Power - Live in EarthShaker DVD 2 (Heavy Metal),[2006, DVD5]

 

Создавать темы 07-Июн-2018 14:54

Manowar - The Absolute Power - Live in EarthShaker DVD 2- Год выпуска: 2006
Жанр: Heavy Metal
Страна: USA
Продолжительность: 3:50:21-В период с 21 по 23 июля 2005 года MANOWAR впервые устроили съезд своих фэнов (MANOWAR Mega Fan Convention), вылившийся в великолепное хэдлайн-шоу в рамках Earthshaker Fest 2005 (Гайзелвинд, Германия). Данное праздничное для фэнов true heavy metal мероприятие продолжалось три дня и записывалось 27 камерами. Теперь будьте готовы увидеть ошеломляющую энергетику и пыл MANOWAR и их самых замечательных фэнов в мире на двойном DVD, "The Day The Earth Shook - The Absolute Power".
Данный DVD, содержащий почти семь часов эксклюзивного материала, переносит зрителя в ряды аудитории Earthshaker Fest 2005, чтобы лицезреть полную версию более чем двухчасового выступления MANOWAR, кульминацией которого стало исполнение в финале классической композиции "Battle Hymn", причем впервые всеми бывшими и нынешними участниками группы. Также оператор делает экскурс в MANOWAR Mega Fan Convention, выявляя искреннюю любовь и преданность фэнов MANOWAR Королям металла. Кроме того, DVD содержит эклюзивные интервью с участниками группы, организаторами съезда и режиссером.
Материал для DVD "The Day The Earth Shook-The Absolute Power" был срежиссирован Neil'ом Johnson'ом, работавшим над последним DVD MANOWAR, "Hell on Earth Part IV".
-Качество: DVD5
Формат: DVD Video
Видео: PAL 16:9 (720x576) VBR
Аудио: English (Dolby AC3, 6 ch), English (Dolby AC3, 2 ch)-

Содержание:

(дополнительные материалы):
* The Day The Earth Shook - The Absolute Power Of MANOWAR (45 минут):
- Introduction
- The Beginning
- New York Rehearsals
- Orchestra & Choir Rehearsals
- The House Of Death
- Lighting
- The PA
- Sound Check
- Filming In HD
- Conclusion
- Credits
* Manowar Fan Convention - The Extended Experience (3 часа):
- Introduction
- Fan Club History
- Fan Convention Story
- The Doors Open
- Opening Ceremonies
- Jomsvikings
- Greetings Brothers
- The Face Of Destiny
- Revenge
- Fallen Brother
- Fortitude
- Women On Stage
- There Can Be Only One
- Battle
- Special Guests
- Past Members
- The Kings Of Metal
- Horses Of Steel
- Ross The Boss Guitar Clinic
- David Shankle Guitar Clinic
- Karl Logan Guitar Clinic
- Eric Adams Meet And Greet
- Scott Columbus Drum Clinic
- Voice Of The Immortals
- Arm Wrestling Competition
- Eric Adams' Scream Competition
- Beer Drinking Joey Style
- MANOWAR Q & A
- MANOWAR Sound Check
- Miss MANOWAR
- Fan Confessionals
- Credits
* Репетиция "Battle Hymn" в Гайзелвинде (13 минут).

MediaInfo

Общее
Полное имя : D:\Manowar - The Absolute Power - Live in EarthShaker - DVD 2 (www.heavytorrents.org) (By Hijodeodin)\VIDEO_TS\VIDEO_TS.BUP
Формат : DVD Video
Профиль формата : Menu
Размер файла : 12,0 Кбайт
Режим общего битрейта : Переменный
FileExtension_Invalid : ifo
Видео
Идентификатор : 224 (0xE0)
Формат : MPEG Video
Версия формата : Version 2
Вид битрейта : Переменный
Ширина : 720 пикселей
Высота : 576 пикселей
Соотношение сторон : 16:9
Частота кадров : 25,000 кадров/сек
Стандарт вещания : PAL
Метод сжатия : С потерями
Аудио
Формат : AC-3
Формат/Информация : Audio Coding 3
Каналы : 2 канала
Частота : 48,0 КГц
Метод сжатия : С потерями
Текст
Формат : RLE
Формат/Информация : Run-length encoding
Битовая глубина : 2 бит
Общее
Полное имя : D:\Manowar - The Absolute Power - Live in EarthShaker - DVD 2 (www.heavytorrents.org) (By Hijodeodin)\VIDEO_TS\VIDEO_TS.IFO
Формат : DVD Video
Профиль формата : Menu
Размер файла : 12,0 Кбайт
Режим общего битрейта : Переменный
Видео
Идентификатор : 224 (0xE0)
Формат : MPEG Video
Версия формата : Version 2
Вид битрейта : Переменный
Ширина : 720 пикселей
Высота : 576 пикселей
Соотношение сторон : 16:9
Частота кадров : 25,000 кадров/сек
Стандарт вещания : PAL
Метод сжатия : С потерями
Аудио
Формат : AC-3
Формат/Информация : Audio Coding 3
Каналы : 2 канала
Частота : 48,0 КГц
Метод сжатия : С потерями
Текст
Формат : RLE
Формат/Информация : Run-length encoding
Битовая глубина : 2 бит
Общее
Полное имя : D:\Manowar - The Absolute Power - Live in EarthShaker - DVD 2 (www.heavytorrents.org) (By Hijodeodin)\VIDEO_TS\VIDEO_TS.VOB
Формат : MPEG-PS
Размер файла : 1,10 Мбайт
Продолжительность : 10 с. 0 мс.
Режим общего битрейта : Постоянный
Общий поток : 926 Кбит/сек
Видео
Идентификатор : 224 (0xE0)
Формат : MPEG Video
Версия формата : Version 2
Профиль формата : [email protected]
Настройки формата : CustomMatrix / BVOP
Параметр BVOP формата : Да
Параметр матрицы формата : Выборочная
Параметр GOP формата : M=3, N=13
Продолжительность : 10 с. 0 мс.
Вид битрейта : Постоянный
Битрейт : 715 Кбит/сек
Максимальный битрейт : 4000 Кбит/сек
Ширина : 720 пикселей
Высота : 576 пикселей
Соотношение сторон : 16:9
Частота кадров : 25,000 кадров/сек
Стандарт вещания : PAL
Цветовое пространство : YUV
Субдискретизация насыщенности : 4:2:0
Битовая глубина : 8 бит
Тип развёртки : Прогрессивная
Метод сжатия : С потерями
Бит/(Пиксели*Кадры) : 0.069
Временной код первого кадра : 00:00:00:00
Оригинал временного кода : Group of pictures header
GOP, открыто/закрыто : Закрыто
Размер потока : 873 Кбайт (77%)
Аудио
Идентификатор : 189 (0xBD)-128 (0x80)
Формат : AC-3
Формат/Информация : Audio Coding 3
Режим смешивания : DVD-Video
Продолжительность : 9 с. 984 мс.
Вид битрейта : Постоянный
Битрейт : 192 Кбит/сек
Каналы : 2 канала
Расположение каналов : Front: L R
Частота : 48,0 КГц
Частота кадров : 31,250 кадров/сек (1536 SPF)
Битовая глубина : 16 бит
Метод сжатия : С потерями
Размер потока : 234 Кбайт (21%)
ServiceKind/String : Complete Main
Меню
Общее
Полное имя : D:\Manowar - The Absolute Power - Live in EarthShaker - DVD 2 (www.heavytorrents.org) (By Hijodeodin)\VIDEO_TS\VTS_01_0.BUP
Формат : DVD Video
Профиль формата : Program
Размер файла : 144 Кбайт
Продолжительность : 3 ч. 35 м.
Режим общего битрейта : Переменный
Общий поток : 91 бит/сек
FileExtension_Invalid : ifo
Видео
Идентификатор : 224 (0xE0)
Формат : MPEG Video
Версия формата : Version 2
Продолжительность : 3 ч. 35 м.
Вид битрейта : Переменный
Ширина : 720 пикселей
Высота : 576 пикселей
Соотношение сторон : 16:9
Частота кадров : 25,000 кадров/сек
Стандарт вещания : PAL
Метод сжатия : С потерями
Аудио
Идентификатор : 128 (0x80)
Формат : AC-3
Формат/Информация : Audio Coding 3
Продолжительность : 3 ч. 35 м.
Каналы : 2 канала
Частота : 48,0 КГц
Метод сжатия : С потерями
Язык : English
Меню #1
Продолжительность : 34 м. 23 с.
00:00:00.000 : Chapter 1
00:01:52.720 : Chapter 2
00:04:48.480 : Chapter 3
00:07:03.320 : Chapter 4
00:11:00.400 : Chapter 5
00:13:03.840 : Chapter 6
00:14:58.320 : Chapter 7
00:18:49.760 : Chapter 8
00:22:07.760 : Chapter 9
00:27:58.720 : Chapter 10
00:28:35.080 : Chapter 11
List (Audio) : 0
Меню #2
Продолжительность : 2 ч. 48 м.
00:00:00.000 : Chapter 1
00:00:35.320 : Chapter 2
00:02:15.720 : Chapter 3
00:07:28.760 : Chapter 4
00:10:03.120 : Chapter 5
00:13:04.240 : Chapter 6
00:16:36.720 : Chapter 7
00:17:52.800 : Chapter 8
00:21:13.640 : Chapter 9
00:24:18.440 : Chapter 10
00:30:33.240 : Chapter 11
00:35:27.840 : Chapter 12
00:40:37.360 : Chapter 13
00:43:52.080 : Chapter 14
00:49:44.640 : Chapter 15
00:59:10.440 : Chapter 16
01:04:54.040 : Chapter 17
01:07:33.240 : Chapter 18
01:10:53.000 : Chapter 19
01:18:33.640 : Chapter 20
01:21:32.040 : Chapter 21
01:30:56.160 : Chapter 22
01:37:18.240 : Chapter 23
01:48:03.160 : Chapter 24
01:53:01.720 : Chapter 25
01:55:35.080 : Chapter 26
01:59:23.480 : Chapter 27
02:01:23.000 : Chapter 28
02:06:40.840 : Chapter 29
02:08:16.120 : Chapter 30
02:11:19.880 : Chapter 31
02:12:59.800 : Chapter 32
02:28:01.200 : Chapter 33
02:33:05.400 : Chapter 34
02:39:49.320 : Chapter 35
02:46:36.960 : Chapter 36
List (Audio) : 0
Меню #3
Продолжительность : 13 м. 3 с.
00:00:00.000 : Chapter 1
00:01:27.840 : Chapter 2
List (Audio) : 0
Меню #4
Продолжительность : 3 ч. 35 м.
00:00:00.000 : Chapter 1
00:00:01.480 : Chapter 2
00:00:04.080 : Chapter 3
00:00:20.080 : Chapter 4
00:00:23.760 : Chapter 5
00:00:28.760 : Chapter 6
00:00:30.320 : Chapter 7
00:00:33.760 : Chapter 8
00:00:54.760 : Chapter 9
00:01:00.160 : Chapter 10
00:01:36.160 : Chapter 11
00:01:41.480 : Chapter 12
00:02:16.480 : Chapter 13
00:02:17.480 : Chapter 14
00:02:35.480 : Chapter 15
00:03:11.480 : Chapter 16
00:03:15.480 : Chapter 17
00:03:50.480 : Chapter 18
00:04:07.480 : Chapter 19
00:04:30.480 : Chapter 20
00:04:37.480 : Chapter 21
00:04:57.480 : Chapter 22
00:05:02.040 : Chapter 23
00:05:16.040 : Chapter 24
00:05:33.040 : Chapter 25
00:05:38.520 : Chapter 26
00:06:12.520 : Chapter 27
00:06:17.640 : Chapter 28
00:06:58.640 : Chapter 29
00:07:20.640 : Chapter 30
00:07:27.640 : Chapter 31
00:07:30.360 : Chapter 32
00:08:03.360 : Chapter 33
00:08:31.360 : Chapter 34
00:08:41.520 : Chapter 35
00:08:46.240 : Chapter 36
00:09:21.240 : Chapter 37
00:09:24.560 : Chapter 38
00:09:26.320 : Chapter 39
00:09:48.320 : Chapter 40
00:10:24.320 : Chapter 41
00:10:30.320 : Chapter 42
00:11:10.320 : Chapter 43
00:11:26.320 : Chapter 44
00:11:35.320 : Chapter 45
00:11:41.440 : Chapter 46
00:11:47.720 : Chapter 47
00:11:49.080 : Chapter 48
00:12:17.080 : Chapter 49
List (Audio) : 0
Общее
Полное имя : D:\Manowar - The Absolute Power - Live in EarthShaker - DVD 2 (www.heavytorrents.org) (By Hijodeodin)\VIDEO_TS\VTS_01_0.IFO
Формат : DVD Video
Профиль формата : Program
Размер файла : 144 Кбайт
Продолжительность : 3 ч. 35 м.
Режим общего битрейта : Переменный
Общий поток : 91 бит/сек
Видео
Идентификатор : 224 (0xE0)
Формат : MPEG Video
Версия формата : Version 2
Продолжительность : 3 ч. 35 м.
Вид битрейта : Переменный
Ширина : 720 пикселей
Высота : 576 пикселей
Соотношение сторон : 16:9
Частота кадров : 25,000 кадров/сек
Стандарт вещания : PAL
Метод сжатия : С потерями
Аудио
Идентификатор : 128 (0x80)
Формат : AC-3
Формат/Информация : Audio Coding 3
Продолжительность : 3 ч. 35 м.
Каналы : 2 канала
Частота : 48,0 КГц
Метод сжатия : С потерями
Язык : English
Меню #1
Продолжительность : 34 м. 23 с.
00:00:00.000 : Chapter 1
00:01:52.720 : Chapter 2
00:04:48.480 : Chapter 3
00:07:03.320 : Chapter 4
00:11:00.400 : Chapter 5
00:13:03.840 : Chapter 6
00:14:58.320 : Chapter 7
00:18:49.760 : Chapter 8
00:22:07.760 : Chapter 9
00:27:58.720 : Chapter 10
00:28:35.080 : Chapter 11
List (Audio) : 0
Меню #2
Продолжительность : 2 ч. 48 м.
00:00:00.000 : Chapter 1
00:00:35.320 : Chapter 2
00:02:15.720 : Chapter 3
00:07:28.760 : Chapter 4
00:10:03.120 : Chapter 5
00:13:04.240 : Chapter 6
00:16:36.720 : Chapter 7
00:17:52.800 : Chapter 8
00:21:13.640 : Chapter 9
00:24:18.440 : Chapter 10
00:30:33.240 : Chapter 11
00:35:27.840 : Chapter 12
00:40:37.360 : Chapter 13
00:43:52.080 : Chapter 14
00:49:44.640 : Chapter 15
00:59:10.440 : Chapter 16
01:04:54.040 : Chapter 17
01:07:33.240 : Chapter 18
01:10:53.000 : Chapter 19
01:18:33.640 : Chapter 20
01:21:32.040 : Chapter 21
01:30:56.160 : Chapter 22
01:37:18.240 : Chapter 23
01:48:03.160 : Chapter 24
01:53:01.720 : Chapter 25
01:55:35.080 : Chapter 26
01:59:23.480 : Chapter 27
02:01:23.000 : Chapter 28
02:06:40.840 : Chapter 29
02:08:16.120 : Chapter 30
02:11:19.880 : Chapter 31
02:12:59.800 : Chapter 32
02:28:01.200 : Chapter 33
02:33:05.400 : Chapter 34
02:39:49.320 : Chapter 35
02:46:36.960 : Chapter 36
List (Audio) : 0
Меню #3
Продолжительность : 13 м. 3 с.
00:00:00.000 : Chapter 1
00:01:27.840 : Chapter 2
List (Audio) : 0
Меню #4
Продолжительность : 3 ч. 35 м.
00:00:00.000 : Chapter 1
00:00:01.480 : Chapter 2
00:00:04.080 : Chapter 3
00:00:20.080 : Chapter 4
00:00:23.760 : Chapter 5
00:00:28.760 : Chapter 6
00:00:30.320 : Chapter 7
00:00:33.760 : Chapter 8
00:00:54.760 : Chapter 9
00:01:00.160 : Chapter 10
00:01:36.160 : Chapter 11
00:01:41.480 : Chapter 12
00:02:16.480 : Chapter 13
00:02:17.480 : Chapter 14
00:02:35.480 : Chapter 15
00:03:11.480 : Chapter 16
00:03:15.480 : Chapter 17
00:03:50.480 : Chapter 18
00:04:07.480 : Chapter 19
00:04:30.480 : Chapter 20
00:04:37.480 : Chapter 21
00:04:57.480 : Chapter 22
00:05:02.040 : Chapter 23
00:05:16.040 : Chapter 24
00:05:33.040 : Chapter 25
00:05:38.520 : Chapter 26
00:06:12.520 : Chapter 27
00:06:17.640 : Chapter 28
00:06:58.640 : Chapter 29
00:07:20.640 : Chapter 30
00:07:27.640 : Chapter 31
00:07:30.360 : Chapter 32
00:08:03.360 : Chapter 33
00:08:31.360 : Chapter 34
00:08:41.520 : Chapter 35
00:08:46.240 : Chapter 36
00:09:21.240 : Chapter 37
00:09:24.560 : Chapter 38
00:09:26.320 : Chapter 39
00:09:48.320 : Chapter 40
00:10:24.320 : Chapter 41
00:10:30.320 : Chapter 42
00:11:10.320 : Chapter 43
00:11:26.320 : Chapter 44
00:11:35.320 : Chapter 45
00:11:41.440 : Chapter 46
00:11:47.720 : Chapter 47
00:11:49.080 : Chapter 48
00:12:17.080 : Chapter 49
List (Audio) : 0
Общее
Полное имя : D:\Manowar - The Absolute Power - Live in EarthShaker - DVD 2 (www.heavytorrents.org) (By Hijodeodin)\VIDEO_TS\VTS_01_0.VOB
Формат : MPEG-PS
Размер файла : 133 Мбайт
Продолжительность : 1 м. 30 с.
Режим общего битрейта : Постоянный
Общий поток : 12,4 Мбит/сек
Видео
Идентификатор : 224 (0xE0)
Формат : MPEG Video
Версия формата : Version 2
Профиль формата : [email protected]
Настройки формата : CustomMatrix / BVOP
Параметр BVOP формата : Да
Параметр матрицы формата : Выборочная
Параметр GOP формата : M=3, N=12
Структура изображения : Frame
Продолжительность : 1 м. 30 с.
Вид битрейта : Постоянный
Битрейт : 11,9 Мбит/сек
Максимальный битрейт : 7000 Кбит/сек
Ширина : 720 пикселей
Высота : 576 пикселей
Соотношение сторон : 16:9
Частота кадров : 25,000 кадров/сек
Стандарт вещания : PAL
Цветовое пространство : YUV
Субдискретизация насыщенности : 4:2:0
Битовая глубина : 8 бит
Тип развёртки : Чересстрочная
Порядок развёртки : Верхнее поле первое
Метод сжатия : С потерями
Бит/(Пиксели*Кадры) : 1.152
Временной код первого кадра : 01:00:00:00
Оригинал временного кода : Group of pictures header
GOP, открыто/закрыто : Закрыто
Размер потока : 128 Мбайт (96%)
Аудио
Идентификатор : 189 (0xBD)-128 (0x80)
Формат : AC-3
Формат/Информация : Audio Coding 3
Режим смешивания : DVD-Video
Продолжительность : 1 м. 30 с.
Вид битрейта : Постоянный
Битрейт : 192 Кбит/сек
Каналы : 2 канала
Расположение каналов : Front: L R
Частота : 48,0 КГц
Частота кадров : 31,250 кадров/сек (1536 SPF)
Битовая глубина : 16 бит
Метод сжатия : С потерями
Размер потока : 2,06 Мбайт (2%)
ServiceKind/String : Complete Main
Меню
Общее
Полное имя : D:\Manowar - The Absolute Power - Live in EarthShaker - DVD 2 (www.heavytorrents.org) (By Hijodeodin)\VIDEO_TS\VTS_01_1.VOB
Формат : MPEG-PS
Размер файла : 1024 Мбайт
Продолжительность : 16 м. 36 с.
Режим общего битрейта : Переменный
Общий поток : 8622 Кбит/сек
Видео
Идентификатор : 224 (0xE0)
Формат : MPEG Video
Версия формата : Version 2
Профиль формата : [email protected]
Настройки формата : CustomMatrix / BVOP
Параметр BVOP формата : Да
Параметр матрицы формата : Выборочная
Параметр GOP формата : Variable
Структура изображения : Frame
Продолжительность : 16 м. 36 с.
Вид битрейта : Переменный
Битрейт : 8259 Кбит/сек
Максимальный битрейт : 9800 Кбит/сек
Ширина : 720 пикселей
Высота : 576 пикселей
Соотношение сторон : 16:9
Частота кадров : 25,000 кадров/сек
Стандарт вещания : PAL
Цветовое пространство : YUV
Субдискретизация насыщенности : 4:2:0
Битовая глубина : 8 бит
Тип развёртки : Чересстрочная
Порядок развёртки : Верхнее поле первое
Метод сжатия : С потерями
Бит/(Пиксели*Кадры) : 0.797
Временной код первого кадра : 01:00:00:00
Оригинал временного кода : Group of pictures header
GOP, открыто/закрыто : Закрыто
Размер потока : 981 Мбайт (96%)
Аудио
Идентификатор : 189 (0xBD)-128 (0x80)
Формат : AC-3
Формат/Информация : Audio Coding 3
Режим смешивания : DVD-Video
Продолжительность : 16 м. 35 с.
Вид битрейта : Постоянный
Битрейт : 192 Кбит/сек
Каналы : 2 канала
Расположение каналов : Front: L R
Частота : 48,0 КГц
Частота кадров : 31,250 кадров/сек (1536 SPF)
Битовая глубина : 16 бит
Метод сжатия : С потерями
Размер потока : 22,8 Мбайт (2%)
ServiceKind/String : Complete Main
Меню
Общее
Полное имя : D:\Manowar - The Absolute Power - Live in EarthShaker - DVD 2 (www.heavytorrents.org) (By Hijodeodin)\VIDEO_TS\VTS_01_2.VOB
Формат : MPEG-PS
Размер файла : 1024 Мбайт
Продолжительность : 51 м. 23 с.
Режим общего битрейта : Переменный
Общий поток : 2786 Кбит/сек
Видео
Идентификатор : 224 (0xE0)
Формат : MPEG Video
Версия формата : Version 2
Профиль формата : [email protected]
Настройки формата : CustomMatrix / BVOP
Параметр BVOP формата : Да
Параметр матрицы формата : Выборочная
Параметр GOP формата : M=3, N=12
Структура изображения : Frame
Продолжительность : 51 м. 23 с.
Вид битрейта : Переменный
Битрейт : 2538 Кбит/сек
Максимальный битрейт : 9800 Кбит/сек
Ширина : 720 пикселей
Высота : 576 пикселей
Соотношение сторон : 16:9
Частота кадров : 25,000 кадров/сек
Стандарт вещания : PAL
Цветовое пространство : YUV
Субдискретизация насыщенности : 4:2:0
Битовая глубина : 8 бит
Тип развёртки : Чересстрочная
Порядок развёртки : Верхнее поле первое
Метод сжатия : С потерями
Бит/(Пиксели*Кадры) : 0.245
Временной код первого кадра : 01:16:36:09
Оригинал временного кода : Group of pictures header
GOP, открыто/закрыто : Закрыто
Размер потока : 933 Мбайт (91%)
Аудио
Идентификатор : 189 (0xBD)-128 (0x80)
Формат : AC-3
Формат/Информация : Audio Coding 3
Режим смешивания : DVD-Video
Продолжительность : 51 м. 23 с.
Вид битрейта : Постоянный
Битрейт : 192 Кбит/сек
Каналы : 2 канала
Расположение каналов : Front: L R
Частота : 48,0 КГц
Частота кадров : 31,250 кадров/сек (1536 SPF)
Битовая глубина : 16 бит
Метод сжатия : С потерями
Задержка видео : -456 мс.
Размер потока : 70,6 Мбайт (7%)
ServiceKind/String : Complete Main
Меню
Общее
Полное имя : D:\Manowar - The Absolute Power - Live in EarthShaker - DVD 2 (www.heavytorrents.org) (By Hijodeodin)\VIDEO_TS\VTS_01_3.VOB
Формат : MPEG-PS
Размер файла : 1024 Мбайт
Режим общего битрейта : Переменный
Видео
Идентификатор : 224 (0xE0)
Формат : MPEG Video
Версия формата : Version 2
Профиль формата : [email protected]
Настройки формата : CustomMatrix / BVOP
Параметр BVOP формата : Да
Параметр матрицы формата : Выборочная
Параметр GOP формата : M=3, N=12
Структура изображения : Frame
Вид битрейта : Переменный
Максимальный битрейт : 9800 Кбит/сек
Ширина : 720 пикселей
Высота : 576 пикселей
Соотношение сторон : 16:9
Частота кадров : 25,000 кадров/сек
Стандарт вещания : PAL
Цветовое пространство : YUV
Субдискретизация насыщенности : 4:2:0
Битовая глубина : 8 бит
Тип развёртки : Чересстрочная
Порядок развёртки : Верхнее поле первое
Метод сжатия : С потерями
Временной код первого кадра : 02:07:59:24
Оригинал временного кода : Group of pictures header
GOP, открыто/закрыто : Закрыто
Аудио
Идентификатор : 189 (0xBD)-128 (0x80)
Формат : AC-3
Формат/Информация : Audio Coding 3
Режим смешивания : DVD-Video
Вид битрейта : Постоянный
Битрейт : 192 Кбит/сек
Каналы : 2 канала
Расположение каналов : Front: L R
Частота : 48,0 КГц
Частота кадров : 31,250 кадров/сек (1536 SPF)
Битовая глубина : 16 бит
Метод сжатия : С потерями
Задержка видео : -568 мс.
ServiceKind/String : Complete Main
Меню
Общее
Полное имя : D:\Manowar - The Absolute Power - Live in EarthShaker - DVD 2 (www.heavytorrents.org) (By Hijodeodin)\VIDEO_TS\VTS_01_4.VOB
Формат : MPEG-PS
Размер файла : 1024 Мбайт
Режим общего битрейта : Переменный
Видео
Идентификатор : 224 (0xE0)
Формат : MPEG Video
Версия формата : Version 2
Профиль формата : [email protected]
Настройки формата : CustomMatrix / BVOP
Параметр BVOP формата : Да
Параметр матрицы формата : Выборочная
Параметр GOP формата : M=3, N=12
Структура изображения : Frame
Вид битрейта : Переменный
Максимальный битрейт : 9800 Кбит/сек
Ширина : 720 пикселей
Высота : 576 пикселей
Соотношение сторон : 16:9
Частота кадров : 25,000 кадров/сек
Стандарт вещания : PAL
Цветовое пространство : YUV
Субдискретизация насыщенности : 4:2:0
Битовая глубина : 8 бит
Тип развёртки : Чересстрочная
Порядок развёртки : Верхнее поле первое
Метод сжатия : С потерями
Временной код первого кадра : 01:48:07:24
Оригинал временного кода : Group of pictures header
GOP, открыто/закрыто : Закрыто
Аудио
Идентификатор : 189 (0xBD)-128 (0x80)
Формат : AC-3
Формат/Информация : Audio Coding 3
Режим смешивания : DVD-Video
Вид битрейта : Постоянный
Битрейт : 192 Кбит/сек
Каналы : 2 канала
Расположение каналов : Front: L R
Частота : 48,0 КГц
Частота кадров : 31,250 кадров/сек (1536 SPF)
Битовая глубина : 16 бит
Метод сжатия : С потерями
Задержка видео : -536 мс.
ServiceKind/String : Complete Main
Меню
Общее
Полное имя : D:\Manowar - The Absolute Power - Live in EarthShaker - DVD 2 (www.heavytorrents.org) (By Hijodeodin)\VIDEO_TS\VTS_01_5.VOB
Формат : MPEG-PS
Размер файла : 220 Мбайт
Продолжительность : 9 м. 49 с.
Режим общего битрейта : Переменный
Общий поток : 3127 Кбит/сек
Видео
Идентификатор : 224 (0xE0)
Формат : MPEG Video
Версия формата : Version 2
Профиль формата : [email protected]
Настройки формата : CustomMatrix / BVOP
Параметр BVOP формата : Да
Параметр матрицы формата : Выборочная
Параметр GOP формата : M=3, N=12
Структура изображения : Frame
Продолжительность : 9 м. 49 с.
Вид битрейта : Переменный
Битрейт : 2872 Кбит/сек
Максимальный битрейт : 9800 Кбит/сек
Ширина : 720 пикселей
Высота : 576 пикселей
Соотношение сторон : 16:9
Частота кадров : 25,000 кадров/сек
Стандарт вещания : PAL
Цветовое пространство : YUV
Субдискретизация насыщенности : 4:2:0
Битовая глубина : 8 бит
Тип развёртки : Чересстрочная
Порядок развёртки : Верхнее поле первое
Метод сжатия : С потерями
Бит/(Пиксели*Кадры) : 0.277
Временной код первого кадра : 01:04:13:08
Оригинал временного кода : Group of pictures header
Размер потока : 202 Мбайт (92%)
Аудио
Идентификатор : 189 (0xBD)-128 (0x80)
Формат : AC-3
Формат/Информация : Audio Coding 3
Режим смешивания : DVD-Video
Продолжительность : 9 м. 42 с.
Вид битрейта : Постоянный
Битрейт : 192 Кбит/сек
Каналы : 2 канала
Расположение каналов : Front: L R
Частота : 48,0 КГц
Частота кадров : 31,250 кадров/сек (1536 SPF)
Битовая глубина : 16 бит
Метод сжатия : С потерями
Задержка видео : -232 мс.
Размер потока : 13,3 Мбайт (6%)
ServiceKind/String : Complete Main
Меню
Общее
Полное имя : D:\Manowar - The Absolute Power - Live in EarthShaker - DVD 2 (www.heavytorrents.org) (By Hijodeodin)\VIDEO_TS\VTS_02_0.BUP
Формат : DVD Video
Профиль формата : Program
Размер файла : 12,0 Кбайт
Продолжительность : 30 с. 320 мс.
Режим общего битрейта : Переменный
Общий поток : 3242 бит/сек
FileExtension_Invalid : ifo
Видео
Идентификатор : 224 (0xE0)
Формат : MPEG Video
Версия формата : Version 2
Продолжительность : 30 с. 320 мс.
Вид битрейта : Переменный
Ширина : 720 пикселей
Высота : 576 пикселей
Соотношение сторон : 16:9
Частота кадров : 25,000 кадров/сек
Стандарт вещания : PAL
Метод сжатия : С потерями
Аудио
Идентификатор : 128 (0x80)
Формат : AC-3
Формат/Информация : Audio Coding 3
Продолжительность : 30 с. 320 мс.
Каналы : 2 канала
Частота : 48,0 КГц
Метод сжатия : С потерями
Язык : English
Меню
Продолжительность : 30 с. 320 мс.
00:00:00.000 : Chapter 1
00:00:07.000 : Chapter 2
List (Audio) : 0
Общее
Полное имя : D:\Manowar - The Absolute Power - Live in EarthShaker - DVD 2 (www.heavytorrents.org) (By Hijodeodin)\VIDEO_TS\VTS_02_0.IFO
Формат : DVD Video
Профиль формата : Program
Размер файла : 12,0 Кбайт
Продолжительность : 30 с. 320 мс.
Режим общего битрейта : Переменный
Общий поток : 3242 бит/сек
Видео
Идентификатор : 224 (0xE0)
Формат : MPEG Video
Версия формата : Version 2
Продолжительность : 30 с. 320 мс.
Вид битрейта : Переменный
Ширина : 720 пикселей
Высота : 576 пикселей
Соотношение сторон : 16:9
Частота кадров : 25,000 кадров/сек
Стандарт вещания : PAL
Метод сжатия : С потерями
Аудио
Идентификатор : 128 (0x80)
Формат : AC-3
Формат/Информация : Audio Coding 3
Продолжительность : 30 с. 320 мс.
Каналы : 2 канала
Частота : 48,0 КГц
Метод сжатия : С потерями
Язык : English
Меню
Продолжительность : 30 с. 320 мс.
00:00:00.000 : Chapter 1
00:00:07.000 : Chapter 2
List (Audio) : 0
Общее
Полное имя : D:\Manowar - The Absolute Power - Live in EarthShaker - DVD 2 (www.heavytorrents.org) (By Hijodeodin)\VIDEO_TS\VTS_02_1.VOB
Формат : MPEG-PS
Размер файла : 14,2 Мбайт
Продолжительность : 17 с. 360 мс.
Режим общего битрейта : Постоянный
Общий поток : 6864 Кбит/сек
Видео
Идентификатор : 224 (0xE0)
Формат : MPEG Video
Версия формата : Version 2
Профиль формата : [email protected]
Настройки формата : CustomMatrix / BVOP
Параметр BVOP формата : Да
Параметр матрицы формата : Выборочная
Параметр GOP формата : Variable
Структура изображения : Frame
Продолжительность : 17 с. 360 мс.
Вид битрейта : Постоянный
Битрейт : 6500 Кбит/сек
Ширина : 720 пикселей
Высота : 576 пикселей
Соотношение сторон : 16:9
Частота кадров : 25,000 кадров/сек
Стандарт вещания : PAL
Цветовое пространство : YUV
Субдискретизация насыщенности : 4:2:0
Битовая глубина : 8 бит
Тип развёртки : Чересстрочная
Порядок развёртки : Верхнее поле первое
Метод сжатия : С потерями
Бит/(Пиксели*Кадры) : 0.627
Временной код первого кадра : 01:00:00:00
Оригинал временного кода : Group of pictures header
GOP, открыто/закрыто : Закрыто
Размер потока : 13,5 Мбайт (95%)
Аудио
Идентификатор : 189 (0xBD)-128 (0x80)
Формат : AC-3
Формат/Информация : Audio Coding 3
Режим смешивания : DVD-Video
Продолжительность : 17 с. 120 мс.
Вид битрейта : Постоянный
Битрейт : 192 Кбит/сек
Каналы : 2 канала
Расположение каналов : Front: L R
Частота : 48,0 КГц
Частота кадров : 31,250 кадров/сек (1536 SPF)
Битовая глубина : 16 бит
Метод сжатия : С потерями
Размер потока : 401 Кбайт (3%)
ServiceKind/String : Complete Main
Меню

Создавать темы 07-Июн-2018 15:34 (спустя 39 минут)

dybrik13 а mp3 этого альбома не попадалось?

Создавать темы 07-Июн-2018 15:40 (спустя 6 минут)

Oleg44 писал(а):

128908dybrik13 а mp3 этого альбома не попадалось?
попадалось,надо диски перебрать,поищу.....

Создавать темы 07-Июн-2018 16:57 (спустя 1 час 17 минут)

dybrik13, спасибо, весьма хотелось бы послушать. На мой взгляд легенарная группа H.M.R. и весьма жаль что похожего именно на них ничего нет

Создавать темы 07-Июн-2018 17:08 (спустя 11 минут)

Oleg44 писал(а):

128914dybrik13, спасибо, весьма хотелось бы послушать. На мой взгляд легенарная группа H.M.R. и весьма жаль что похожего именно на них ничего нет
Да не за что,согласен-одна из лучших и не похожа не на какую....
Выложил полную дискографию и там смотри что тебе надо.....
Рейтинг@Mail.ru