Как умер Сталин (2008) SATRip (2 серии из 2)

 

Создавать темы 18-Май-2018 08:25

Как умер Сталин- Телекомпания: Россия, студия «Русское поле»
Жанр: Документальный, расследование, биография, история
Режиссер: Сергей Костин, Александр Колесник
Продолжительность: 2 х ~ 00:39:46-Подробный отчет о последних днях генералиссимуса, подтвержденный документами и фотографиями, впервые извлеченными из Архива Федеральной службы безопасности РФ (в прошлом архив КГБ СССР) и Центрального архива Министерства Обороны. Среди них: медицинское заключение о состоянии здоровья товарища И. В. Сталина, официальный диагноз и неофициальное заключение консилиума врачей, итоги медицинских осмотров. Зрители узнают о том, что до сих пор оставалось тайной: к примеру, что к бальзамированию врачи начали готовиться задолго до смерти «отца народов», гроб для генералиссимуса плотник (некий Василий Ерастович) сколотил из неструганых досок, а текст некролога утвердили еще 2 марта. Будет показан Акт патологоанатомического исследования, только недавно рассекреченный и еще не известный большинству российских ученых: 10 страниц скрупулезного анализа, проведенного в ночь с 5 на 6 марта.
Впервые перед телекамерой о последних часах жизни Сталина расскажет начальник охраны высших партийных и государственных лиц СССР Николай Новик. До самого дня смерти генералиссимуса он нес дежурство на даче Сталина в Кунцево, а затем - первым получил приказ навсегда стереть из памяти события тех дней. Только в фильме «Как умер Сталин» будут показаны чудом сохранившиеся страницы личного дневника Н. Новика, где подробно описано все происходившее на Ближней даче весной 53-го года. Ведущий - легендарный актер театра и кино, Народный артист СССР Армен Джигарханян.
-Видео: Xvid, 704x512, ~1800 Kbps
Аудио: AC3, 2 ch, 192 Kbps

Mediainfo

Общее
Полное имя : E:\Запись\Смерть Сталина\Как.умер.Сталин.(2.серии.из.2). 2008.XviD.SATRip.alf62\Как.умер.Сталин.(1.серия). 2008.XviD.SATRip.alf62.avi
Формат : AVI
Формат/Информация : Audio Video Interleave
Размер файла : 572 Мбайт
Продолжительность : 39 м.
Общий поток : 2001 Кбит/сек
Программа кодирования : VirtualDubMod 1.5.10.3 | www.virtualdub-fr.org || (build 2550/release)
Библиотека кодирования : VirtualDubMod build 2550/release
Видео
Идентификатор : 0
Формат : MPEG-4 Visual
Профиль формата : Advanced [email protected]
Параметр BVOP формата : 2
Параметр QPel формата : Нет
Параметр GMC формата : Без точки перехода
Параметр матрицы формата : Default (MPEG)
Идентификатор кодека : XVID
Идентификатор кодека/Подсказка : XviD
Продолжительность : 39 м.
Битрейт : 1800 Кбит/сек
Ширина : 704 пикселя
Высота : 512 пикселей
Соотношение сторон : 1,375
Частота кадров : 25,000 кадров/сек
Цветовое пространство : YUV
Субдискретизация насыщенности : 4:2:0
Битовая глубина : 8 бит
Тип развёртки : Прогрессивная
Метод сжатия : С потерями
Бит/(Пиксели*Кадры) : 0.200
Размер потока : 514 Мбайт (90%)
Библиотека кодирования : XviD 73
Аудио
Идентификатор : 1
Формат : AC-3
Формат/Информация : Audio Coding 3
Расширение режима : CM (complete main)
Параметр Endianness формата : Big
Идентификатор кодека : 2000
Продолжительность : 39 м.
Вид битрейта : Постоянный
Битрейт : 192 Кбит/сек
Каналы : 2 канала
Расположение каналов : Front: L R
Частота : 48,0 КГц
Битовая глубина : 16 бит
Метод сжатия : С потерями
Размер потока : 54,8 Мбайт (10%)
Выравнивание : Разделение по промежуткам
Продолжительность промежутка : 40 мс. (1,00 видеокадр)
Время предзагрузки промежутка : 500 мс.
Рейтинг@Mail.ru