Волки / Wolfen (1981) BDRip [H.264/720p]

 

Создавать темы 16-Май-2018 09:22

Волки / Wolfen- Производство: США / Orion Pictures, King-Hitzig Productions
Жанр: Ужасы
Режиссер: Майкл Уодли
Актеры: Альберт Финни, Дайан Венора, Эдвард Джеймс Олмос, Грегори Хайнс, Том Нунен, Дик О’Нил, Дел Берти, Питер Майкл Гец, Сэм Грэй, Ральф Белл, Макс М. Браун, Энн Мари Потамо, Сара Фелдер, Реджинальд ВелДжонсон, Джеймс Толкан, Джон МакКарри-Как вы думаете, что общего может быть между богатым торговцем недвижимостью, его женой-наркоманкой и грязным пьяницей из трущоб? Лишь одно жуткое обстоятельство: все они жертвы неслыханных по жестокости убийств, потрясших Нью-Йорк! Ведущий расследование ветеран убойного отдела скоро с ужасом начинает понимать, что зловещие убийства совершаются древними сверхъестественными существами...-Возраст: 16+ (зрителям, достигшим 16 лет)-Качество видео: BDRip 720p
Продолжительность: 01:54:06
Субтитры: Английские
Видео: AVC, 1280x534 (2.35:1), 23.976 fps, 4 652 Kbps (0.284 bit/pixel)
Аудио #1: AC-3, 48.0 KHz, 2 ch, 192 Kbps, CBR (Russian) - двухголосый
Аудио #2: AC-3, 48.0 KHz, 2 ch, 192 Kbps, CBR (Russian) - авторский С.Визгунов
Аудио #3: AC-3, 48.0 KHz, 6 ch, 448 Kbps, CBR (English) - оригинал

Mediainfo

Полное имя : D:\ФИЛЬМЫ\Волки.1981 (А.Финни, Д.Венора).mkv
Формат : Matroska
Версия формата : Version 2
Размер файла : 4,37 Гбайт
Продолжительность : 1 ч. 54 м.
Общий поток : 5486 Кбит/сек
Дата кодирования : UTC 2018-05-15 17:21:07
Программа кодирования : mkvmerge v5.3.0 ('I could have danced') built on Feb 9 2012 10:38:07
Библиотека кодирования : libebml v1.2.3 + libmatroska v1.3.0
Attachments : poster.jpg
Видео
Идентификатор : 1
Формат : AVC
Формат/Информация : Advanced Video Codec
Профиль формата : [email protected]
Параметр CABAC формата : Да
Параметр ReFrames формата : 12 кадров
Идентификатор кодека : V_MPEG4/ISO/AVC
Продолжительность : 1 ч. 54 м.
Битрейт : 4652 Кбит/сек
Ширина : 1280 пикселей
Высота : 534 пикселя
Соотношение сторон : 2,40:1
Режим частоты кадров : Постоянный
Частота кадров : 23,976 (24000/1001) кадра/сек
Цветовое пространство : YUV
Субдискретизация насыщенности : 4:2:0
Битовая глубина : 8 бит
Тип развёртки : Прогрессивная
Бит/(Пиксели*Кадры) : 0.284
Размер потока : 3,62 Гбайт (83%)
Библиотека кодирования : x264 core 146 r2538 121396c
Настройки программы : cabac=1 / ref=12 / deblock=1:-3:-3 / analyse=0x3:0x133 / me=umh / subme=11 / psy=1 / psy_rd=1.00:0.10 / mixed_ref=1 / me_range=32 / chroma_me=1 / trellis=2 / 8x8dct=1 / cqm=0 / deadzone=21,11 / fast_pskip=0 / chroma_qp_offset=-3 / threads=12 / lookahead_threads=3 / sliced_threads=0 / nr=0 / decimate=0 / interlaced=0 / bluray_compat=0 / constrained_intra=0 / bframes=12 / b_pyramid=2 / b_adapt=2 / b_bias=0 / direct=3 / weightb=1 / open_gop=0 / weightp=2 / keyint=240 / keyint_min=23 / scenecut=40 / intra_refresh=0 / rc=2pass / mbtree=0 / bitrate=4652 / ratetol=1.0 / qcomp=0.60 / qpmin=0 / qpmax=69 / qpstep=4 / cplxblur=20.0 / qblur=0.5 / ip_ratio=1.40 / pb_ratio=1.30 / aq=1:0.90
Язык : English
Default : Да
Forced : Нет
Аудио #1
Идентификатор : 2
Формат : AC-3
Формат/Информация : Audio Coding 3
Расширение режима : CM (complete main)
Параметр Endianness формата : Big
Идентификатор кодека : A_AC3
Продолжительность : 1 ч. 54 м.
Вид битрейта : Постоянный
Битрейт : 192 Кбит/сек
Каналы : 2 канала
Расположение каналов : Front: L R
Частота : 48,0 КГц
Частота кадров : 31,250 кадров/сек (1536 spf)
Битовая глубина : 16 бит
Метод сжатия : С потерями
Размер потока : 157 Мбайт (3%)
Заголовок : Двухголосый (Премьер)
Язык : Russian
Default : Да
Forced : Нет
Аудио #2
Идентификатор : 3
Формат : AC-3
Формат/Информация : Audio Coding 3
Расширение режима : CM (complete main)
Параметр Endianness формата : Big
Идентификатор кодека : A_AC3
Продолжительность : 1 ч. 54 м.
Вид битрейта : Постоянный
Битрейт : 192 Кбит/сек
Каналы : 2 канала
Расположение каналов : Front: L R
Частота : 48,0 КГц
Частота кадров : 31,250 кадров/сек (1536 spf)
Битовая глубина : 16 бит
Метод сжатия : С потерями
Размер потока : 157 Мбайт (3%)
Заголовок : Авторский С.Визгунов
Язык : Russian
Default : Нет
Forced : Нет
Аудио #3
Идентификатор : 4
Формат : AC-3
Формат/Информация : Audio Coding 3
Расширение режима : CM (complete main)
Параметр Endianness формата : Big
Идентификатор кодека : A_AC3
Продолжительность : 1 ч. 54 м.
Вид битрейта : Постоянный
Битрейт : 448 Кбит/сек
Каналы : 6 каналов
Расположение каналов : Front: L C R, Side: L R, LFE
Частота : 48,0 КГц
Частота кадров : 31,250 кадров/сек (1536 spf)
Битовая глубина : 16 бит
Метод сжатия : С потерями
Размер потока : 366 Мбайт (8%)
Заголовок : Оригинал
Язык : English
Default : Нет
Forced : Нет
Текст #1
Идентификатор : 5
Формат : UTF-8
Идентификатор кодека : S_TEXT/UTF8
Идентификатор кодека/Информация : UTF-8 Plain Text
Заголовок : full
Язык : English
Default : Нет
Forced : Нет
Текст #2
Идентификатор : 6
Формат : UTF-8
Идентификатор кодека : S_TEXT/UTF8
Идентификатор кодека/Информация : UTF-8 Plain Text
Заголовок : SDH
Язык : English
Default : Нет
Forced : Нет
Меню
00:00:00.000 : :Chapter 01
00:02:39.156 : :Chapter 02
00:05:49.597 : :Chapter 03
00:10:53.818 : :Chapter 04
00:15:49.865 : :Chapter 05
00:19:21.367 : :Chapter 06
00:22:38.647 : :Chapter 07
00:25:02.458 : :Chapter 08
00:27:58.134 : :Chapter 09
00:30:28.785 : :Chapter 10
00:33:06.483 : :Chapter 11
00:36:32.148 : :Chapter 12
00:38:55.248 : :Chapter 13
00:45:43.532 : :Chapter 14
00:50:14.010 : :Chapter 15
00:53:38.715 : :Chapter 16
00:57:03.085 : :Chapter 17
01:01:41.197 : :Chapter 18
01:05:53.282 : :Chapter 19
01:10:44.488 : :Chapter 20
01:14:44.604 : :Chapter 21
01:16:51.398 : :Chapter 22
01:18:59.109 : :Chapter 23
01:26:36.106 : :Chapter 24
01:30:51.237 : :Chapter 25
01:35:01.694 : :Chapter 26
01:38:54.552 : :Chapter 27
01:41:01.845 : :Chapter 28
01:42:59.171 : :Chapter 29
01:46:12.573 : :Chapter 30
01:48:23.287 : :Chapter 31
01:49:30.564 : :Chapter 32
01:54:04.921 : :Chapter 33
Рейтинг@Mail.ru