Лапси (Артем Аксененко) [2018, фантастика, драма, WEB-DL, 1080p-LQ] (серии 1-8 из 8)

 

Создавать темы 15-Апр-2018 08:40

- Лапси (серии 1-8 из 8)- Производство: Россия
Жанр: драма
Режиссер: Артем Аксененко
Актеры: Мария Машкова, Даниил Воробьев, Денис Парамонов, Диана Пожарская, Наталия Вдовина, Иван Верховых, Семён Лопатин, Антон Кузнецов, Владимир Чуприков, Михаил Химичев и др.
Описание:
В карельской деревне обнаружен штамм нетипичного для местности заболевания — лихорадки Западного Нила. Руководитель НИИ Вирусологии отправляет на разведку эпидемиологов-вирусологов Веру Бойко и Николая Романова. Их связывает непростое прошлое, и соглашаются на совместную командировку они с трудом. В поисках источника вируса Вера и Николай обнаруживают у себя симптомы смертельно опасной болезни. Когда на странном острове Сариола она вдруг отступает, трудности только начинаются. Учёным предстоит разгадать тайну этого места, постичь непростые правила выживания среди его жителей, разобраться в своих отношениях, которые закончились много лет назад, и найти способ вернуться домой, ведь при попытке сбежать симптомы лихорадки возвращаются.

Дата российской премьеры: 9 февраля 2018
Продолжительность: ~00:50:00 серия
Качество видео: WEB-DL
Видео: AVC/H.264, 1920x800,1920x1080 ~6255 Kbps
Аудио: AC3, 2 ch, 192 Kbps

МИ

Общее
Уникальный идентификатор : 125091883318646670774853517277427264283 (0x5E1BD204F802047C35E68E1F07CDEB1B)
Полное имя : G:\Лапси (2018)\Серия 1.mkv
Формат : Matroska
Версия формата : Version 2
Размер файла : 2,23 Гбайт
Продолжительность : 48 м. 26 с.
Общий поток : 6578 Кбит/сек
Программа кодирования : Lavf54.63.104
Библиотека кодирования : Lavf54.63.104
Видео
Идентификатор : 1
Формат : AVC
Формат/Информация : Advanced Video Codec
Профиль формата : [email protected]
Настройки формата : CABAC / 4 Ref Frames
Параметр CABAC формата : Да
Параметр RefFrames формата : 4 кадра
Идентификатор кодека : V_MPEG4/ISO/AVC
Продолжительность : 48 м. 26 с.
Битрейт : 6255 Кбит/сек
Ширина : 1920 пикселей
Высота : 800 пикселей
Соотношение сторон : 2,40:1
Режим частоты кадров : Постоянный
Частота кадров : 23,976 кадра/сек
Цветовое пространство : YUV
Субдискретизация насыщенности : 4:2:0
Битовая глубина : 8 бит
Тип развёртки : Прогрессивная
Бит/(Пиксели*Кадры) : 0.170
Размер потока : 2,12 Гбайт (95%)
Default : Нет
Forced : Нет
Аудио
Идентификатор : 2
Формат : AC-3
Формат/Информация : Audio Coding 3
Идентификатор кодека : A_AC3
Продолжительность : 48 м. 26 с.
Вид битрейта : Постоянный
Битрейт : 192 Кбит/сек
Каналы : 2 канала
Расположение каналов : Front: L R
Частота : 48,0 КГц
Частота кадров : 31,250 кадров/сек (1536 SPF)
Битовая глубина : 16 бит
Метод сжатия : С потерями
Размер потока : 66,5 Мбайт (3%)
ServiceKind/String : Complete Main
Default : Да
Forced : Нет
Скриншоты:
--

Создавать темы 15-Апр-2018 10:10 (спустя 1 час 29 минут)

Трейле впечатлил, соскучился по фантастике, да еще русские так там мутят просто триллер получается

Создавать темы 15-Апр-2018 10:15 (спустя 4 минуты)

замутили там по-взрослому, я пока на 6 серии сижу, вопросов- тьма осталась...

Создавать темы 15-Апр-2018 10:49 (спустя 34 минуты)

Раздачу поддержу

Создавать темы 15-Апр-2018 12:03 (спустя 1 час 13 минут)

to be continued
Рейтинг@Mail.ru