Ленинград - Live СК Олимпийский, Москва [2017.12.16, Концерт, WEBRip, 1080p-LQ]

 

Создавать темы 07-Янв-2018 09:45

- Ленинград - Live СК Олимпийский, Москва - Производство: Россия
Жанр: Концерт
Описание:
Ленинград - Концерт в Москве 16.12.2017
Релиз от: Алехаndr
Продолжительность: 02:12:10
Качество видео: WEBRip
Субтитры: Отсутствуют
18+ Внимание! Присутствует ненормативная лексика!
Видео: AVC/H.264, 1920x1080 (16:9), ~3160 Kbps
Аудио: AC3, 2 ch, 192 Kbps

МИ

Общее
Уникальный идентификатор                 : 268396251458901738632167851531747965530 (0xC9EB3CDE2406C9B3B1439E38A9F7BA5A)
Полное имя                               : F:\Ленинград (16.12.2017).by.Алехаndr.mkv
Формат                                   : Matroska
Версия формата                           : Version 4 / Version 2
Размер файла                             : 3,10 Гбайт
Продолжительность                        : 2 ч. 12 м.
Общий поток                              : 3354 Кбит/сек
Дата кодирования                         : UTC 2018-01-07 07:08:58
Программа кодирования                    : mkvmerge v19.0.0 ('Brave Captain') 64-bit
Библиотека кодирования                   : libebml v1.3.5 + libmatroska v1.4.8 / Lavf57.71.100
Видео
Идентификатор                            : 1
Формат                                   : AVC
Формат/Информация                        : Advanced Video Codec
Профиль формата                          : [email protected]
Настройки формата                        : CABAC / 3 Ref Frames
Параметр CABAC формата                   : Да
Параметр RefFrames формата               : 3 кадра
Идентификатор кодека                     : V_MPEG4/ISO/AVC
Продолжительность                        : 2 ч. 12 м.
Битрейт                                  : 3160 Кбит/сек
Ширина                                   : 1920 пикселей
Высота                                   : 1080 пикселей
Соотношение сторон                       : 16:9
Режим частоты кадров                     : Постоянный
Частота кадров                           : 25,000 кадров/сек
Цветовое пространство                    : YUV
Субдискретизация насыщенности            : 4:2:0
Битовая глубина                          : 8 бит
Тип развёртки                            : Прогрессивная
Бит/(Пиксели*Кадры)                      : 0.061
Размер потока                            : 2,92 Гбайт (94%)
Default                                  : Да
Forced                                   : Нет
Цветовой диапазон                        : Limited
Основные цвета                           : BT.709
Характеристики трансфера                 : BT.709
Коэффициенты матрицы                     : BT.709
Аудио
Идентификатор                            : 2
Формат                                   : AC-3
Формат/Информация                        : Audio Coding 3
Идентификатор кодека                     : A_AC3
Продолжительность                        : 2 ч. 12 м.
Вид битрейта                             : Постоянный
Битрейт                                  : 192 Кбит/сек
Каналы                                   : 2 канала
Расположение каналов                     : Front: L R
Частота                                  : 44,1 КГц
Частота кадров                           : 28,711 кадров/сек (1536 SPF)
Битовая глубина                          : 16 бит
Метод сжатия                             : С потерями
Задержка видео                           : -40 мс.
Размер потока                            : 182 Мбайт (6%)
Язык                                     : Russian
ServiceKind/String                       : Complete Main
Default                                  : Да
Forced                                   : Нет

Треклист:

01. Шоу
02. цензура баб
03. WWW
04. Геленжик
05. Пару баб
06. Прощай
07. Дорожная
08. Москва
09. Экспонат
10. В Питере-пить
11. ЗОЖ
12. Фиаско
13. Отпускная
14. Менеджер
15. Патриотка
16. Баба не моего масштаба
17. Самая любимая
18. Преображение (сиськи)
19. Рыба
20. Терминатор
21. Хуямба
22. Ч.П.Х
23. Супер гуд
24. Кольщик
25. Бомба
26. Экстаз
27. Вояж
28. Плачу
29. Нет и ещё раз нет
30. Просто
31. Сумка
32. И т.д
33. Обезьяна и Орёл
34. Мы за все хорошее
Скриншоты:
Рейтинг@Mail.ru