[ Сегодня на трекере фрилич! Идет свободное скачивание без начисления Download ]

Покровские ворота (Михаил Козаков) [1982, Комедия, BDRip]

 

Создавать темы 09-Дек-2017 17:41

-Покровские ворота - Производство: СССР
Жанр: Комедия
Режиссер: Михаил Козаков
Актеры: Олег Меньшиков, Леонид Броневой, Софья Пилявская, Елена Коренева, Татьяна Догилева, Евгений Моргунов, Анатолий Равикович, Игорь Дмитриев, Наталья Крачковская, Инна Ульянова, Эммануил Геллер, Марина Дюжева, Михаил Козаков, Римма Маркова, Ирина Шмелева, Александр Пятков, Виктор Борцов, Елизавета Никищихина, Владимир Пицек, Элла Ярошевская, Валентина Воилкова, А. Коняшин, Светлана Швайко.
Описание:
По одноименной пьесе Леонида Зорина.
Лирическая ретро-комедия о москвичах 50-х годов, живущих в коммунальной квартире в доме у Покровских Ворот.


Продолжительность: 02:19:44
Качество видео: BDRip
Видеокодек: MPEG-4 AVC/H.264
Битрейт видео: ~2000 Kbps
Размер кадра: 960x704
Аудиокодек: AC3 5.1
Битрейт аудио: 320 Kbps

MediaInfo

General
Unique ID : 245885868952650528980743331544630809337 (0xB8FBE5529BD2F437B5397FEE7ADFD2F9)
Complete name : Покровские ворота.mkv
Format : Matroska
Format version : Version 4 / Version 2
File size : 2.26 GiB
Duration : 2h 19mn
Overall bit rate : 2 314 Kbps
Movie name : Покровские ворота (rip by smithland)
Encoded date : UTC 2010-02-22 21:41:31
Writing application : mkvmerge v5.9.0 ('On The Loose')
Writing library : libebml v1.3.0 + libmatroska v1.4.0
Attachment : Yes
Video
ID : 1
Format : AVC
Format/Info : Advanced Video Codec
Format profile : [url=mailto:[email protected]][email protected][/url]
Format settings, CABAC : Yes
Format settings, ReFrames : 12 frames
Codec ID : V_MPEG4/ISO/AVC
Duration : 2h 19mn
Bit rate : 2 000 Kbps
Width : 960 pixels
Height : 704 pixels
Display aspect ratio : 4:3
Frame rate mode : Constant
Frame rate : 23.976 fps
Color space : YUV
Chroma subsampling : 4:2:0
Bit depth : 8 bits
Scan type : Progressive
Bits/(Pixel*Frame) : 0.123
Stream size : 1.90 GiB (84%)
Writing library : x264 core 120
Encoding settings : cabac=1 / ref=12 / deblock=1:-1:0 / analyse=0x3:0x133 / me=umh / subme=11 / psy=1 / psy_rd=1.00:0.50 / mixed_ref=1 / me_range=32 / chroma_me=1 / trellis=2 / 8x8dct=1 / cqm=0 / deadzone=21,11 / fast_pskip=1 / chroma_qp_offset=-4 / threads=12 / sliced_threads=0 / nr=0 / decimate=0 / interlaced=0 / bluray_compat=0 / constrained_intra=0 / bframes=8 / b_pyramid=2 / b_adapt=1 / b_bias=0 / direct=1 / weightb=1 / open_gop=0 / weightp=2 / keyint=240 / keyint_min=24 / scenecut=40 / intra_refresh=0 / rc_lookahead=50 / rc=abr / mbtree=1 / bitrate=2000 / ratetol=1.0 / qcomp=0.60 / qpmin=3 / qpmax=69 / qpstep=4 / ip_ratio=1.40 / aq=1:1.00
Language : Russian
Default : Yes
Forced : Yes
Color primaries : BT.709
Transfer characteristics : BT.709
Matrix coefficients : BT.709
Audio
ID : 2
Format : AC-3
Format/Info : Audio Coding 3
Mode extension : CM (complete main)
Format settings, Endianness : Big
Codec ID : A_AC3
Duration : 2h 19mn
Bit rate mode : Constant
Bit rate : 320 Kbps
Channel(s) : 6 channels
Channel positions : Front: L C R, Side: L R, LFE
Sampling rate : 48.0 KHz
Bit depth : 16 bits
Compression mode : Lossy
Stream size : 320 MiB (14%)
Language : Russian
Default : Yes
Forced : Yes
Menu
00:00:00.000 : en:Chapter 1
00:04:41.739 : en:Chapter 2
00:07:55.057 : en:Chapter 3
00:12:43.471 : en:Chapter 4
00:17:41.477 : en:Chapter 5
00:22:17.377 : en:Chapter 6
00:29:18.298 : en:Chapter 7
00:33:50.194 : en:Chapter 8
00:48:47.215 : en:Chapter 9
00:50:58.722 : en:Chapter 10
00:55:14.769 : en:Chapter 11
01:04:12.431 : en:Chapter 12
01:05:57.203 : en:Chapter 13
01:18:47.347 : en:Chapter 14
01:20:16.895 : en:Chapter 15
01:23:46.813 : en:Chapter 16
01:25:34.504 : en:Chapter 17
01:25:44.305 : en:Chapter 18
01:38:41.832 : en:Chapter 19
01:39:59.243 : en:Chapter 20
01:42:04.576 : en:Chapter 21
01:47:15.971 : en:Chapter 22
01:50:43.303 : en:Chapter 23
01:53:03.193 : en:Chapter 24
01:55:07.984 : en:Chapter 25
02:01:07.802 : en:Chapter 26
02:10:29.947 : en:Chapter 27
02:15:49.266 : en:Chapter 28
02:19:42.582 : en:Chapter 29
Скриншоты:


Последний раз редактировалось: Геннадич (2017-12-09 17:44), всего редактировалось 1 раз

Создавать темы 09-Дек-2017 17:50 (спустя 8 минут)

Сегодня в 07:30 скончался народный артист СССР Леонид Сергеевич Броневой



  • Смотреть видео
  • Создавать темы 09-Дек-2017 19:44 (спустя 1 час 53 минуты)

    2017 не хочет уходить не забрав у нас ещё одного(?) великого артиста
    Рейтинг@Mail.ru