Сверхъестественное / Supernatural (Ким Мэннерс, Филип Сгриккиа, Роберт Сингер) [S08 / 2012-2013 / WEB-DLRip-AVC 720p l LostFilm]

 

Создавать темы 02-Фев-2014 04:08

Год выпуска: 2012-2013
Выпущено: США,Kripke Enterprises, Warner Bros. Pictures Co., Warner Bros. Television, Wonderland Sound and Vision
Жанр: Драма/Фэнтези/Ужасы/Детектив/Триллер
Продолжительность: 00:44:00
Сезон: 8
Серия: 1-23
Количество серий в сезоне: 23
Озвучка:Профессиональная многоголосая закадровая(LostFilm)
Субтитры: Русские Хардсаб от
Официальный сайт сериала
Русскоязычный фан-сайт
Режиссер: Ким Мэннерс, Филип Сгриккиа, Роберт Сингер
В ролях: Джаред Падалеки, Дженсен Эклс, Джим Бивер, Джеффри Дин Морган, Миша Коллинз, Женевьев Кортезе, Кэти Кэссиди, Лорен Коэн, Саманта Феррис, Никки Эйкокс и др.
Сериал рассказывает о приключениях братьев Сэма и Дина Винчестеров, которые путешествуют по Соединённым Штатам на чёрном автомобиле Chevrolet Impala 1967 года, расследуют паранормальные явления, многие из которых основаны на американских городских легендах и фольклоре, и сражаются с порождениями зла, такими как демоны и призраки.

Качество : WEB-DLRip-AVC 720p
Формат: MPEG-4
Видео кодек: H264
Видео: 3115Кбит/сек,1280х720(16.9),в 25.000кадр/сек,AVC([email protected])(1Ref Frames)
Аудио кодек: AAC
Аудио Russian Dolby Digital 5.1:456Кбит/сек,44.1КГц,6каналов,AAC,(Version4)(LC)

Доп. информация:

Звуковая дорожка сделана путем наложения чистого голоса озвучивателей на центральный канал оригинальной дорожки. Качество идентично звуковой дорожке.

Список эпизодов сезона

1. Поговорим о Кевине (We Need to Talk About Kevin)
2. Вам слово, мамочка! (What's Up, Tiger Mommy?)
3. Сердечные муки (Heartache)
4. Укушенный (Bitten)
5. Брат по крови (Blood Brother)
6. Утоли мои печали (Southern Comfort)
7. Кусочек Кевина (A Little Slice of Kevin)
8. Отважный охотник (Hunteri Heroici)
9. Гражданин Клык (Citizen Fang)
10. На перепутье (Torn and Frayed)
11 Ролевая игра и настоящая девчонка (LARP and the Real Girl)
12 А время летит (As Time Goes By)
13 Все ненавидят Гитлера (Everybody Hates Hitler)
14 Метод проб и ошибок (Trial and Error)
15 Человек собаке друг... и даже больше (Man's Best Friend with Benefits)
16 Вспоминая Титанов (Remember the Titans)
17 Прощай, странник (Goodbye Stranger)
18 Братаны и ботаны (Freaks and Geeks)
19 Перевозчик (Taxi Driver)
20 Игромания (Pac-Man Fever)
21 Великий беглец (The Great Escapist)
22 Дела минувшие (Clip Show)
23 Жертва (Sacrifice)

MediaInfo

Общее
Полное имя : D:Д Е Т Е К Т И ВSupernatural_S08_rus[LostFilm.TV]_DD5.1_x264_Nikolai.Baranov_WEB-DLRip-AVC_(720pSupernatural_2012_S08E01_rus[LostFilm.TV]_DD5.1_x264_Nikolai.Baranov_WEB-DLRip-AVC_(720p).mp4
Формат : MPEG-4
Профиль формата : Base Media
Идентификатор кодека : isom
Размер файла : 1,07 Гбайт
Продолжительность : 42 м.
Режим общего битрейта : Переменный
Общий поток : 3575 Кбит/сек
Дата кодирования : UTC 2012-11-25 15:58:23
Дата пометки : UTC 2012-11-25 15:58:23
Программа кодирования : Lavf51.12.1
Видео
Идентификатор : 1
Формат : AVC
Формат/Информация : Advanced Video Codec
Профиль формата : [email protected]
Параметр CABAC формата : Нет
Параметр ReFrames формата : 1 кадр
Параметр GOP формата : M=1, N=12
Идентификатор кодека : avc1
Идентификатор кодека/Информация : Advanced Video Coding
Продолжительность : 42 м.
Вид битрейта : Переменный
Битрейт : 3115 Кбит/сек
Максимальный битрейт : 4500 Кбит/сек
Ширина : 1280 пикселей
Высота : 720 пикселей
Соотношение сторон : 16:9
Режим частоты кадров : Постоянный
Частота кадров : 25,000 кадров/сек
Частота кадров в оригинале : 24,000 кадра/сек
Цветовое пространство : YUV
Субдискретизация насыщенности : 4:2:0
Битовая глубина : 8 бит
Тип развёртки : Прогрессивная
Бит/(Пиксели*Кадры) : 0.135
Размер потока : 952 Мбайт (87%)
Дата кодирования : UTC 2012-11-25 15:58:23
Дата пометки : UTC 2012-11-25 15:58:23
Аудио
Идентификатор : 2
Формат : AAC
Формат/Информация : Advanced Audio Codec
Профиль формата : LC
Идентификатор кодека : 40
Продолжительность : 42 м.
Вид битрейта : Переменный
Битрейт : 456 Кбит/сек
Каналы : 6 каналов
Расположение каналов : Front: L C R, Side: L R, LFE
Частота : 44,1 КГц
Метод сжатия : С потерями
Размер потока : 139 Мбайт (13%)
Дата кодирования : UTC 2012-11-25 15:58:23

Как закачать отдельный файл

1. Открыть торрент
2. Снять галки с тех файлов торрента, которые мы не хотим закачивать. Оставляем только на нужных нам файлах (файле).
3. Нажать О.К.
В клиенте utorrent
Инструкция
1) Открыть торрент

2) Снять галки с тех файлов торрента, которые мы не хотим закачивать:
* либо вручную, снимая с каждого файла галку( скрин №1)
* либо, нажав кнопку "Снять метки (Select None)", сняв сразу со всех файлов(скрин №2)
№1

№2

Оставляем только на нужных нам файлах (файле).

3)Нажать О.К

Скриншоты:

Внимание!!! 22.05. 2013. РАЗДАЧА ОБНОВЛЕНА.ФИНАЛ СЕЗОНА.ОБНОВИТЕ ТОРЕНТ ФАЙЛ.ПРИЯТНОГО ПРОСМОТРА.
Яндекс.Метрика
Рейтинг@Mail.ru