[ Сегодня на трекере фрилич! Идет свободное скачивание без начисления Download ]

Discovery: Тело человека: Грани возможного / Human body: Pushing the limits [01-04 из 04] (2008,Документальный, научно-познавательный, исследование BDRip-AVC) от MediaClub | P2

 

Создавать темы 01-Фев-2014 07:14

Информация о фильме
Название: Discovery: Тело человека: Грани возможного
Оригинальное название: Human body: Pushing the limits
Год выхода: 2008
Жанр: Документальный, научно-познавательный, исследование
Режиссер: Ден Клифтон
О фильме:
Столкнувшись с экстремальными испытаниями тело человека способно проявить поразительную выносливость, используя свои скрытые резервы. В основу этого захватывающего сериала легли реальные события с людьми, которые выжили лишь благодаря удивительной концентрации своих умственных и физических сил. Зрелищные спецэффекты помогут вам понять, как действует наше тело и наш мозг в минуты кризиса, и теперь, возможно, не останется сомнений в том, что все мы немного супермены.
Страна: США
Студия: Discovery Communications
Продолжительность: 4 x ~ 00:41:00
Перевод: Профессиональный двухголосый
Файл
Кодек: x264
Видео: MPEG-4 AVC, ~ 3359 Кбит/с, 1024х576, 23.976 кадр/с
Аудио #1: Русский (AC3, 6 ch, 384 Кбит/с) / Профессиональный двухголосый
Аудио #2: Английский (AC3, 6 ch, 384 Кбит/с)
Субтитры: Английские
Семпл

MI

x264 [info]: frame I:448 Avg QP:15.01 size: 78824
x264 [info]: frame P:18241 Avg QP:18.07 size: 27731
x264 [info]: frame B:41383 Avg QP:19.98 size: 12343
=============================================
Уникальный идентификатор : 205824048007846881160679592699989182136 (0x9AD8450D3E5A8F048CE45B11EBEDC6B8)
Полное имя : E:MCTelo.Cheloweka.Grani.Wozmozjnogo.(4.serii.iz.4).2008.x264.BDRip(AVC)-MediaClubTelo.Cheloweka.Grani.Wozmozjnogo.(4.serii.iz.4).2008.x264.BDRip(AVC)-MediaClubTelo.Cheloveka.3.serija.Osjazanie.2008.x264.BDRip(AVC)-MediaClub.mkv
Формат : Matroska
Версия формата : Version 4 / Version 2
Размер файла : 1,20 Гбайт
Продолжительность : 41 м.
Общий поток : 4129 Кбит/сек
Название фильма : -= Release MediaClub =-
Дата кодирования : UTC 2014-01-27 17:25:08
Программа кодирования : mkvmerge v6.4.1 ('Omega Point') built on Sep 16 2013 22:05:10
Библиотека кодирования : libebml v1.3.0 + libmatroska v1.4.1
Видео
Идентификатор : 1
Формат : AVC
Формат/Информация : Advanced Video Codec
Профиль формата : [email protected]
Параметр CABAC формата : Да
Параметр ReFrames формата : 9 кадров
Идентификатор кодека : V_MPEG4/ISO/AVC
Продолжительность : 41 м.
Битрейт : 3359 Кбит/сек
Ширина : 1024 пикселя
Высота : 576 пикселей
Соотношение сторон : 16:9
Режим частоты кадров : Постоянный
Частота кадров : 23,976 кадра/сек
Цветовое пространство : YUV
Субдискретизация насыщенности : 4:2:0
Битовая глубина : 8 бит
Тип развёртки : Прогрессивная
Бит/(Пиксели*Кадры) : 0.238
Размер потока : 979 Мбайт (79%)
Заголовок : Telo.Cheloveka.3.serija.Osjazanie.2008.x264.BDRip(AVC)-neni
Библиотека кодирования : x264 core 130 r2273 b3065e6
Настройки программы : cabac=1 / ref=9 / deblock=1:-2:-2 / analyse=0x3:0x113 / me=umh / subme=11 / psy=1 / psy_rd=1.00:0.10 / mixed_ref=1 / me_range=48 / chroma_me=1 / trellis=2 / 8x8dct=1 / cqm=0 / deadzone=21,11 / fast_pskip=0 / chroma_qp_offset=-3 / threads=9 / lookahead_threads=1 / sliced_threads=0 / nr=0 / decimate=0 / interlaced=0 / bluray_compat=0 / constrained_intra=0 / bframes=8 / b_pyramid=2 / b_adapt=2 / b_bias=0 / direct=3 / weightb=1 / open_gop=0 / weightp=2 / keyint=240 / keyint_min=23 / scenecut=40 / intra_refresh=0 / rc=2pass / mbtree=0 / bitrate=3359 / ratetol=1.0 / qcomp=0.60 / qpmin=0 / qpmax=69 / qpstep=4 / cplxblur=20.0 / qblur=0.5 / ip_ratio=1.40 / pb_ratio=1.30 / aq=2:1.00
Язык : English
Default : Да
Forced : Да
Аудио #1
Идентификатор : 2
Формат : AC-3
Формат/Информация : Audio Coding 3
Расширение режима : CM (complete main)
Параметр Endianness формата : Big
Идентификатор кодека : A_AC3
Продолжительность : 41 м.
Вид битрейта : Постоянный
Битрейт : 384 Кбит/сек
Каналы : 6 каналов
Расположение каналов : Front: L C R, Side: L R, LFE
Частота : 48,0 КГц
Битовая глубина : 16 бит
Метод сжатия : С потерями
Размер потока : 115 Мбайт (9%)
Заголовок : DVO | DD 5.1 @ 384 kbps
Язык : Russian
Default : Да
Forced : Да
Аудио #2
Идентификатор : 3
Формат : AC-3
Формат/Информация : Audio Coding 3
Расширение режима : CM (complete main)
Параметр Endianness формата : Big
Идентификатор кодека : A_AC3
Продолжительность : 41 м.
Вид битрейта : Постоянный
Битрейт : 384 Кбит/сек
Каналы : 6 каналов
Расположение каналов : Front: L C R, Side: L R, LFE
Частота : 48,0 КГц
Битовая глубина : 16 бит
Метод сжатия : С потерями
Размер потока : 115 Мбайт (9%)
Заголовок : Original | DD 5.1 @ 384 kbps
Язык : English
Default : Нет
Forced : Нет
Текст
Идентификатор : 4
Формат : UTF-8
Идентификатор кодека : S_TEXT/UTF8
Идентификатор кодека/Информация : UTF-8 Plain Text
Язык : English
Default : Нет
Forced : Нет
Меню
00:00:00.000 : :Chapter 01
00:01:11.604 : :Chapter 02
00:07:26.245 : :Chapter 03
00:13:39.185 : :Chapter 04
00:21:53.512 : :Chapter 05
00:27:28.913 : :Chapter 06
00:35:07.205 : :Chapter 07
00:41:13.537 : :Chapter 08
00:41:44.802 : :Chapter 09

Скриншоты

Яндекс.Метрика
Рейтинг@Mail.ru