Хоббит: Пустошь Смауга / The Hobbit: The Desolation of Smaug (Питер Джексон / Peter Jackson) [2013 г., фэнтези, приключения, DVDScreener] Dub [(Звук с ТS) + VO (речь орков и эльфов)] + Dub (Ukr) «Каро-Премьер»

 

Создавать темы 01-Фев-2014 02:37

-Хоббит: Пустошь Смауга
The Hobbit: The Desolation of Smaug
-- Производство: США, Новая Зеландия
Год выпуска: 2013 г.
Жанр: фэнтези, приключения
Продолжительность: 02:41:05
Мировая премьера: 2 декабря 2013
Российская премьера: 18 декабря 2013, «Каро-Премьер»
Дата выхода DVD: 17 апреля 2014, «CP Дистрибуция»
Дата выхода Blu-Ray: 17 апреля 2014, «CP Дистрибуция»
Перевод: Полное дублирование [ТS] + Профессиональный (одноголосый, закадровый) [На речь орков и эльфов]
Перевод 2: Полное дублирование [Украинский]
Режиссер: Питер Джексон / Peter Jackson-В ролях: Мартин Фриман (Martin Freeman), Ричард Армитедж (Richard Armitage), Иэн МакКеллен (Ian McKellen), Эванджелин Лилли (Evangeline Lilly), Орландо Блум (Orlando Bloom), Люк Эванс (Luke Evans), Бенедикт Камбербэтч (Benedict Cumberbatch), Ли Пейс (Lee Pace), Кен Стотт (Ken Stott), Эйдан Тернер (Aidan Turner), Грэм МакТавиш (Graham McTavish), Джеймс Несбитт (James Nesbitt), Джон Коллен (John Callen), Питер Хэмблтон (Peter Hambleton), Джед Брофи (Jed Brophy), Уильям Кирчер (William Kircher)- -Описание: После успешного перехода через Туманные горы Торин и компания вынуждены обратиться за помощью к могучему незнакомцу, прежде чем отправиться в опасное Лихолесье без волшебника. Их компания обязана завершить своё путешествие к Одинокой горе, где Бэггинсу нужно будет найти потайную дверь, чтобы добраться до клада Смауга…- -Качество видео: DVDScreener
Контейнер: AVI
Видео кодек: XviD
Аудио кодек: AC3
Видео: MPEG4, XviD, 636x264 (2.40:1), 29.970 fps, 1 499 Kbps (0.298 bit/pixel)
Аудио: Rus: AC-3, 48.0 KHz, 2 ch, 192 Kbps, CBR (Dub (ТS) + VO (На речь орков и эльфов))
Аудио #2: Ukr: AC-3, 48.0 KHz, 2 ch, 192 Kbps, CBR (Dub (Украинский))
Cубтитры: отсутствуют-

Media Info

Общее
Полное имя : D:\Hobbit.2.2013.DVDScr.PROPER(RUS+UKR).avi
Формат : AVI
Формат/Информация : Audio Video Interleave
Профиль формата : OpenDML
Размер файла : 2,14 Гбайт
Продолжительность : 2 ч. 41 м.
Общий поток : 1906 Кбит/сек
Программа кодирования : VirtualDubMod 1.5.10.3 (build 2550/release)
Библиотека кодирования : VirtualDubMod build 2550/release
Видео
Идентификатор : 0
Формат : MPEG-4 Visual
Профиль формата : Advanced [email protected]
Параметр BVOP формата : 2
Параметр QPel формата : Да
Параметр GMC формата : Без точки перехода
Параметр матрицы формата : Default (H.263)
Режим смешивания : Сжатый битовый поток
Идентификатор кодека : XVID
Идентификатор кодека/Подсказка : XviD
Продолжительность : 2 ч. 41 м.
Битрейт : 1499 Кбит/сек
Ширина : 636 пикселей
Высота : 264 пикселя
Соотношение сторон : 2,40:1
Частота кадров : 29,970 кадров/сек
Цветовое пространство : YUV
Субдискретизация насыщенности : 4:2:0
Битовая глубина : 8 бит
Тип развёртки : Прогрессивная
Метод сжатия : С потерями
Бит/(Пиксели*Кадры) : 0.298
Размер потока : 1,69 Гбайт (79%)
Библиотека кодирования : XviD 1.2.1 (UTC 2008-12-04)
Аудио #1
Идентификатор : 1
Формат : AC-3
Формат/Информация : Audio Coding 3
Расширение режима : CM (complete main)
Параметр Endianness формата : Big
Идентификатор кодека : 2000
Продолжительность : 2 ч. 41 м.
Вид битрейта : Постоянный
Битрейт : 192 Кбит/сек
Каналы : 2 канала
Расположение каналов : Front: L R
Частота : 48,0 КГц
Битовая глубина : 16 бит
Метод сжатия : С потерями
Размер потока : 221 Мбайт (10%)
Выравнивание : Разделение по промежуткам
Продолжительность промежутка : 33 мс. (1,00 видеокадр)
Время предзагрузки промежутка : 500 мс.
Аудио #2
Идентификатор : 2
Формат : AC-3
Формат/Информация : Audio Coding 3
Расширение режима : CM (complete main)
Параметр Endianness формата : Big
Идентификатор кодека : 2000
Продолжительность : 2 ч. 41 м.
Вид битрейта : Постоянный
Битрейт : 192 Кбит/сек
Каналы : 2 канала
Расположение каналов : Front: L R
Частота : 48,0 КГц
Битовая глубина : 16 бит
Метод сжатия : С потерями
Размер потока : 221 Мбайт (10%)
Выравнивание : Разделение по промежуткам
Продолжительность промежутка : 33 мс. (1,00 видеокадр)
Время предзагрузки промежутка : 500 мс.
-

Скриншоты

-

Доп. Информация

PROPER релиз. С лучшим звуком: запись рус дубляжа и чистка звука (2-х дорог) - Slim9174, запись укр дубляжа - dima-diana, синхронизация двух дорог и озвучка речи орков и эльфов - danis92.
Яндекс.Метрика
Рейтинг@Mail.ru