[ Сегодня на трекере фрилич! Идет свободное скачивание без начисления Download ]

Молода и прекрасна / Jeune & jolie (Франсуа Озон / François Ozon) [2013 г., драма, HDRip] Dub (Лицензия)

 

Создавать темы 01-Фев-2014 02:33

-Молода и прекрасна / Jeune & jolie- Производство: Франция
Год выпуска: 2013 г.
Жанр: драма
Продолжительность: 01:33:20-Мировая премьера: 16 мая 2013
Российская премьера: 29 августа 2013, «Парадиз»
Релиз на DVD: 4 февраля 2014, «Парадиз / Активижен»-Перевод: Профессиональный (полное дублирование) [Лицензия]-Режиссер: Франсуа Озон / François Ozon-В ролях: Марина Вакт, Жеральдин Пайя, Фредерик Пьеро, Шарлотта Рэмплинг, Фантен Рава, Йохан Лейзен, Натали Ришар, Джедже Апали, Люка Призор, Лорен Дельбек-Описание: Семнадцатилетняя Изабель погружается в бездонный мир любви, в поиски себя. Не столько из-за денег, сколько ради удовольствия, она встречается с немолодыми клиентами в гостиничных номерах. Близкие Изабель не подозревают, чем одержима умная и тонкая девушка. Но однажды умирает один из ее постоянных клиентов…-Качество видео: HDRip
Контейнер: AVI
Видео кодек: XviD
Аудио кодек: AC-3
Видео: MPEG-4 Visual at 1706 Кбит/сек: 720 x 384 (1.875) at 23.976 fps, 0.26 bit/pixel
Аудио: AC-3 at 384 Кбит/сек: 6 каналов, 48,0 КГц
Cубтитры: Отсутствуют
-

Media Info

Общее
Полное имя                               : E:\uTorDown\uTorrent\Films\Moloda.i.prekrasna.2013.D.HDRip_[pirat.ca].avi
Формат                                   : AVI
Формат/Информация                        : Audio Video Interleave
Размер файла                             : 1,37 Гбайт
Продолжительность                        : 1 ч. 33 м.
Общий поток                              : 2099 Кбит/сек
Программа кодирования                    : VirtualDubMod 1.5.10.2 (build 2540/release)
Библиотека кодирования                   : VirtualDubMod build 2540/release
Видео
Идентификатор                            : 0
Формат                                   : MPEG-4 Visual
Профиль формата                          : Advanced [email protected]
Параметр BVOP формата                    : 2
Параметр QPel формата                    : Нет
Параметр GMC формата                     : Без точки перехода
Параметр матрицы формата                 : Default (MPEG)
Идентификатор кодека                     : XVID
Идентификатор кодека/Подсказка           : XviD
Продолжительность                        : 1 ч. 33 м.
Битрейт                                  : 1706 Кбит/сек
Ширина                                   : 720 пикселей
Высота                                   : 384 пикселя
Соотношение сторон                       : 1,85:1
Частота кадров                           : 23,976 кадра/сек
Цветовое пространство                    : YUV
Субдискретизация насыщенности            : 4:2:0
Битовая глубина                          : 8 бит
Тип развёртки                            : Прогрессивная
Метод сжатия                             : С потерями
Бит/(Пиксели*Кадры)                      : 0.257
Размер потока                            : 1,11 Гбайт (81%)
Библиотека кодирования                   : XviD 73
Аудио
Идентификатор                            : 1
Формат                                   : AC-3
Формат/Информация                        : Audio Coding 3
Расширение режима                        : CM (complete main)
Параметр Endianness формата              : Big
Идентификатор кодека                     : 2000
Продолжительность                        : 1 ч. 33 м.
Вид битрейта                             : Постоянный
Битрейт                                  : 384 Кбит/сек
Каналы                                   : 6 каналов
Расположение каналов                     : Front: L C R, Side: L R, LFE
Частота                                  : 48,0 КГц
Битовая глубина                          : 16 бит
Метод сжатия                             : С потерями
Размер потока                            : 256 Мбайт (18%)
Выравнивание                             : Разделение по промежуткам
Продолжительность промежутка             : 42  мс. (1,00 видеокадр)
Время предзагрузки промежутка            : 500  мс.

Скриншоты

Яндекс.Метрика
Рейтинг@Mail.ru