Большой Стэн / Big Stan (Роб Шнайдер / Rob Schneider) [2007 г., боевик, комедия, BDRip 720p] Dub + AVO (А. Карповский) + Original Eng + Sub (Rus, Eng)

 

Создавать темы 31-Янв-2014 16:18

-Большой Стэн / Big Stan-- Производство: США, Yari Film Group
Год выпуска: 2007 г.
Жанр: боевик, комедия
Продолжительность: 01:49:07
Мировая премьера: 5 ноября 2007
Российская премьера: 12 июня 2008
Дата выхода DVD: 10 июля 2008
Перевод 1: Профессиональный (дублированный)
Перевод 2: Авторский (одноголосый закадровый) А. Карповский
Оригинальный аудиопоток: английский
Режиссер: Роб Шнайдер / Rob Schneider
Сценарий: Джош Либ / Josh Lieb-В ролях: Роб Шнайдер, Дэвид Кэрредайн, Дженнифер Моррисон, Скотт Уилсон, Генри Гибсон, М. Эммет Уолш, Сэлли Кёркленд, Джексон Рэтбоун, Боб Сапп, Ричард Кайнд-Описание: Не имея ничего, Стен добивается в своей жизни все чего хотел. У него есть материальное благополучие, дорогая машина, красавица жена… Естественно, все это нажито путем различных незаконных махинаций связанных с его работой. В один «прекрасный» день все это рушится. Деятельность, которой он занимался, становится известна правоохранительным органам. Ему грозит тюремное заключение. Обеспокоенный Стен начинает панически искать пути избежания тюремного насилия… Единственной надеждой на спасение становится таинственный «мастер», который принялся обучать его нетрадиционным боевым искусствам. В результате напряженных, а местами и унизительных тренировок, Стен превращается в Большого Стена — грозу всех заключенных.-Качество видео: BDRip 720p
Контейнер: MKV
Видео кодек: AVC
Аудио кодек: AC3
Видео: Advanced Video | 1280x694 | 5283 Kbps | 23.946 fps | 0.242 bit/pixel
Аудио #1: AC3 | 448 Kbps | 6 ch | 48.0 KHz | - Дубляж
Аудио #2: AC3 | 640 Kbps | 6 ch | 48.0 KHz | - А.Карповский
Аудио #3: AC3 | 640 Kbps | 6 ch | 48.0 KHz | - Оригинал
Cубтитры: русские, английские
Формат субтитров: softsub (SRT)

Доп. информация

*Первая режиссёрская работа Роба Шнайдера. Также, он исполнил в фильме главную роль.
*Мелани Лински изначально получила роль жены Стэна, но позже была заменена на Дженнифер Моррисон.
*Фильм снимался в настоящей женской тюрьме. Роб Шнайдер во время съёмок несколько раз падал в обморок от пищевого отравления и теплового удара, но продолжал качать железо и сниматься вместе с несколькими настоящими мастерами восточных единоборств.
*Роль повара сыграл Дэн Иносанто, протеже Брюса Ли.
*В фильме снялась Пилар Шнайдер, мама Роба Шнайдера

Media Info

General
Complete name : Big.Stan.2007.BDRip.720p.2xRUS.ENG_[pirat.ca].mkv
Format : Matroska
File size : 5.34 GiB
Duration : 1h 49mn
Overall bit rate : 7 012 Kbps
Movie name : Большой Стэн / Big Stan (2007) BDRip 720p
Writing library : libebml v1.3.0 + libmatroska v1.4.1
Cover : Yes
Video
ID : 1
Format : AVC
Format/Info : Advanced Video Codec
Format profile : [email protected]
Format settings, CABAC : Yes
Format settings, ReFrames : 9 frames
Muxing mode : Container [email protected]
Codec ID : V_MPEG4/ISO/AVC
Duration : 1h 49mn
Bit rate : 5 144 Kbps
Nominal bit rate : 5 283 Kbps
Width : 1 280 pixels
Height : 694 pixels
Display aspect ratio : 16:9
Frame rate : 23.976 fps
Resolution : 8 bits
Colorimetry : 4:2:0
Scan type : Progressive
Bits/(Pixel*Frame) : 0.242
Stream size : 3.92 GiB (73%)
Writing library : x264 core 140 r2377 1ca7bb9
Encoding settings : cabac=1 / ref=9 / deblock=1:-3:-3 / analyse=0x3:0x113 / me=umh / subme=10 / psy=1 / psy_rd=1.10:0.10 / mixed_ref=1 / me_range=32 / chroma_me=1 / trellis=2 / 8x8dct=1 / cqm=0 / deadzone=21,11 / fast_pskip=0 / chroma_qp_offset=-3 / threads=3 / lookahead_threads=1 / sliced_threads=0 / nr=0 / decimate=1 / interlaced=0 / bluray_compat=0 / constrained_intra=0 / bframes=9 / b_pyramid=2 / b_adapt=2 / b_bias=0 / direct=3 / weightb=1 / open_gop=0 / weightp=2 / keyint=240 / keyint_min=23 / scenecut=40 / intra_refresh=0 / rc_lookahead=60 / rc=2pass / mbtree=0 / bitrate=5283 / ratetol=1.0 / qcomp=0.60 / qpmin=0 / qpmax=69 / qpstep=4 / cplxblur=20.0 / qblur=0.5 / vbv_maxrate=50000 / vbv_bufsize=62500 / nal_hrd=none / filler=0 / ip_ratio=1.40 / pb_ratio=1.30 / aq=1:1.00 / zones=150687,156970,b=0.4
Audio #1
ID : 2
Format : AC-3
Format/Info : Audio Coding 3
Codec ID : A_AC3
Duration : 1h 49mn
Bit rate mode : Constant
Bit rate : 448 Kbps
Channel(s) : 6 channels
Channel positions : Front: L C R, Surround: L R, LFE
Sampling rate : 48.0 KHz
Stream size : 350 MiB (6%)
Title : DUB
Language : Russian
Audio #2
ID : 3
Format : AC-3
Format/Info : Audio Coding 3
Codec ID : A_AC3
Duration : 1h 49mn
Bit rate mode : Constant
Bit rate : 640 Kbps
Channel(s) : 6 channels
Channel positions : Front: L C R, Surround: L R, LFE
Sampling rate : 48.0 KHz
Stream size : 499 MiB (9%)
Title : AVO - Karpovsky
Language : Russian
Audio #3
ID : 4
Format : AC-3
Format/Info : Audio Coding 3
Codec ID : A_AC3
Duration : 1h 49mn
Bit rate mode : Constant
Bit rate : 640 Kbps
Channel(s) : 6 channels
Channel positions : Front: L C R, Surround: L R, LFE
Sampling rate : 48.0 KHz
Stream size : 499 MiB (9%)
Title : ENG - Original
Text #1
ID : 5
Format : UTF-8
Codec ID : S_TEXT/UTF8
Codec ID/Info : UTF-8 Plain Text
Language : Russian
Text #2
ID : 6
Format : UTF-8
Codec ID : S_TEXT/UTF8
Codec ID/Info : UTF-8 Plain Text
Menu
00:00:00.000 : en:01
00:04:29.227 : en:02
00:09:15.346 : en:03
00:15:49.031 : en:04
00:20:58.757 : en:05
00:26:07.441 : en:06
00:31:39.439 : en:07
00:37:06.433 : en:08
00:42:36.220 : en:09
00:48:31.075 : en:10
00:53:36.213 : en:11
00:59:55.091 : en:12
01:05:05.110 : en:13
01:10:46.325 : en:14
01:15:41.495 : en:15
01:20:03.966 : en:16
01:27:05.470 : en:17
01:32:28.418 : en:18
01:37:26.799 : en:19
01:43:07.890 : en:20

Скриншоты

Яндекс.Метрика
Рейтинг@Mail.ru