[ Сегодня на трекере фрилич! Идет свободное скачивание без начисления Download ]

Прикладная ихтиология: Окунь. / Серии: 1 (Стрим-ТВ) [2013 г., Документальный, DVB]

 

Создавать темы 31-Янв-2014 16:07

-Прикладная ихтиология: Окунь.-- Производство: Россия
Жанр: Документальный
Год выпуска: 2013 г.
Продолжительность: 00:25:50
Перевод: Не требуется
Оригинальный аудиопоток: русский
Режиссер: Стрим-ТВ-В ролях: Кирилл Кузищев, Дмитрий Бугорский-Описание: В передаче рассказывают, о повидении окуня в Водоёмах.. и их отличии.-Качество видео: DVB
Контейнер: MPEG-2
Видео кодек: MPEG2
Аудио кодек: MPEG
Видео: MPEG2 Video 720x576 (4:3) 25fps 2 467 Kbps
Аудио: MPEG Audio 48000Hz stereo 192kbps
Cубтитры: отсутствуют

Media Info

General
Complete name : D:\Прикладная ихтиология-2013-12-29.mpg
Format : MPEG-PS
File size : 502 MiB
Duration : 25mn 50s
Overall bit rate mode : Variable
Overall bit rate : 2 713 Kbps
Writing library : encoded by TMPGEnc MPEG Editor 2.0 Version. 2.2.8.177
Video
ID : 224 (0xE0)
Format : MPEG Video
Format version : Version 2
Format profile : [email protected]
Format settings, BVOP : No
Format settings, Matrix : Custom
Format settings, GOP : Variable
Duration : 25mn 50s
Bit rate mode : Variable
Bit rate : 2 467 Kbps
Maximum bit rate : 10 000 Kbps
Width : 720 pixels
Height : 576 pixels
Display aspect ratio : 4:3
Frame rate : 25.000 fps
Standard : PAL
Color space : YUV
Chroma subsampling : 4:2:0
Bit depth : 8 bits
Scan type : Interlaced
Scan order : Top Field First
Compression mode : Lossy
Bits/(Pixel*Frame) : 0.238
Time code of first frame : 00:00:00:00
Time code source : Group of pictures header
Stream size : 456 MiB (91%)
Writing library : TMPGEnc MPEG Editor 2.2.8.177
Matrix coefficients : BT.601
Audio
ID : 192 (0xC0)
Format : MPEG Audio
Format version : Version 1
Format profile : Layer 2
Duration : 25mn 50s
Bit rate mode : Constant
Bit rate : 192 Kbps
Channel count : 2 channels
Sampling rate : 48.0 KHz
Compression mode : Lossy
Stream size : 35.5 MiB (7%)

Скриншот c названием фильма

Скриншоты

Яндекс.Метрика
Рейтинг@Mail.ru