Игрушка / Le Jouet (Франсис Вебер / Francis Veber) [1976 г., комедия, BDRip-AVC] Dub [Советский дубляж] + 2хMVO + DVO + Original (Fre) + Sub (Rus, Eng)[Jolly Roger]

 

Создавать темы 31-Янв-2014 16:03

--Игрушка / Le Jouet- -Производство: Франция, Renn Productions, EFVE, Fideline Films, Andrea Films
Год выпуска: 1976 г.
Жанр: комедия
Продолжительность: 01:33:53--Мировая премьера: 8 декабря 1976
Релиз на DVD: 27 августа 2009, «CP-Digital»--Перевод 1: Профессиональный (полное дублирование) [Советский дубляж]
Перевод 2: Профессиональный (многоголосый закадровый) [CP-Digital]
Перевод 3: Профессиональный (многоголосый закадровый) [ОРТ]
Перевод 4: Профессиональный (двухголосый закадровый) [Рен-ТВ/ТВЦ]
Оригинальный аудиопоток: французский--Режиссер: Франсис Вебер / Francis Veber--В ролях: Пьер Ришар, Мишель Буке, Фабрис Греко, Жак Франсуа, Даниэль Секкальди, Шарль Жерар, Мишель Омон, Сьюзи Дайсон, Жерар Жюньо, Мишель Робен, Мишель Сэнд, Аликс Махье, Лин Шардонне, Ив Барсак, Серж Берри, Ева Дарлан, Мари Фрэй, Пол Хорн, Жан Ланье, Анри Лоран, Роже Мюни, Андре Нэйдер, Жаклин Ноэль, Роже Риффар, Мишель Руль--Описание: Стать игрушкой для малолетнего миллионера — ситуация не для слабонервных. Герой Пьера Ришара отлично справляется с ролью ужасного ребенка и, вместе с подопечным, отрывается на полную катушку.
Остановить «детский беспредел» оказывается не так просто. Особенно если учесть, что Франсуа Перрен стал для ребенка единственным по-настоящему любимым человеком…--Качество видео: BDRip-AVC
Контейнер: MKV
Видео кодек: H.264
Аудио кодек: AC3
Видео: AVC at 1924 Кбит/сек, 960x576 at 23,976 fps
Аудио 1: 48 kHz, AC3 Dolby Digital, 2 ch, 192 kbps [Советский дубляж]
Аудио 2: 48 kHz, AC3 Dolby Digital, 6 ch, 448 kbps [CP-Digital]
Аудио 3: 48 kHz, AC3 Dolby Digital, 2 ch, 192 kbps [ОРТ]
Аудио 4: 48 kHz, AC3 Dolby Digital, 2 ch, 192 kbps [Рен-ТВ/ТВЦ]
Аудио 5: 48 kHz, AC3 Dolby Digital, 2 ch, 384 kbps [Fre]
Cубтитры: русские, английские (отключаемые)

MediaInfo | x264

x264

x264 [info]: using SAR=1/1
x264 [info]: using cpu capabilities: MMX2 SSE2Fast SSSE3 SSE4.2 AVX
x264 [info]: profile High, level 4.1
x264 [info]: frame I:1077 Avg QP:18.76 size: 93654 PSNR Mean Y:44.49 U:48.78 V:48.98 Avg:45.50 Global:45.25
x264 [info]: frame P:29846 Avg QP:22.24 size: 26405 PSNR Mean Y:41.48 U:46.66 V:47.08 Avg:42.63 Global:42.36
x264 [info]: frame B:104155 Avg QP:25.40 size: 4475 PSNR Mean Y:40.48 U:46.52 V:47.01 Avg:41.73 Global:41.46
x264 [info]: consecutive B-frames: 2.5% 3.1% 5.8% 20.3% 19.9% 41.6% 7.0%
x264 [info]: mb I I16..4: 8.2% 67.1% 24.7%
x264 [info]: mb P I16..4: 0.7% 6.5% 1.3% P16..4: 62.6% 12.4% 10.3% 0.8% 0.2% skip: 5.2%
x264 [info]: mb B I16..4: 0.0% 0.3% 0.1% B16..8: 42.0% 5.1% 1.6% direct: 2.7% skip:48.2% L0:42.1% L1:50.1% BI: 7.8%
x264 [info]: 8x8 transform intra:74.2% inter:65.1%
x264 [info]: direct mvs spatial:98.5% temporal:1.5%
x264 [info]: coded y,uvDC,uvAC intra: 91.0% 78.1% 48.0% inter: 19.5% 11.9% 2.1%
x264 [info]: i16 v,h,dc,p: 38% 15% 15% 33%
x264 [info]: i8 v,h,dc,ddl,ddr,vr,hd,vl,hu: 11% 8% 5% 10% 15% 14% 14% 12% 12%
x264 [info]: i4 v,h,dc,ddl,ddr,vr,hd,vl,hu: 12% 8% 3% 9% 15% 15% 13% 12% 13%
x264 [info]: i8c dc,h,v,p: 35% 23% 24% 18%
x264 [info]: Weighted P-Frames: Y:1.6% UV:0.3%
x264 [info]: ref P L0: 41.9% 10.0% 23.5% 5.8% 8.2% 3.9% 6.4% 0.3% 0.0%
x264 [info]: ref B L0: 78.1% 12.1% 4.8% 2.9% 1.3% 0.9%
x264 [info]: ref B L1: 94.6% 5.4%
x264 [info]: SSIM Mean Y:0.9596560 (13.942db)
x264 [info]: PSNR Mean Y:40.731 U:46.566 V:47.046 Avg:41.960 Global:41.664 kb/s:1924.16
x264 [total]: encoded 135078 frames, 6.50 fps, 1924.17 kb/s
Общее
Уникальный идентификатор : 178482899284492233809934681495518370427 (0x86468E57EFC2A1808CAACA875D24DA7B)
Полное имя : D:\Igrushka.1976.BDRip-AVC_2.18Gb_JRG.mkv
Формат : Matroska
Версия формата : Version 4 / Version 2
Размер файла : 2,19 Гбайт
Продолжительность : 1 ч. 33 м.
Общий поток : 3332 Кбит/сек
Название фильма : The Jolly Roger Release Group by http://pirat.ca
Дата кодирования : UTC 2014-01-31 12:32:55
Программа кодирования : mkvmerge v6.2.0 ('Promised Land') built on Apr 28 2013 12:22:01
Библиотека кодирования : libebml v1.3.0 + libmatroska v1.4.0
Видео
Идентификатор : 1
Формат : AVC
Формат/Информация : Advanced Video Codec
Профиль формата : [email protected]
Параметр CABAC формата : Да
Параметр ReFrames формата : 7 кадров
Идентификатор кодека : V_MPEG4/ISO/AVC
Продолжительность : 1 ч. 33 м.
Битрейт : 1924 Кбит/сек
Ширина : 960 пикселей
Высота : 576 пикселей
Соотношение сторон : 1,667
Режим частоты кадров : Постоянный
Частота кадров : 23,976 кадра/сек
Цветовое пространство : YUV
Субдискретизация насыщенности : 4:2:0
Битовая глубина : 8 бит
Тип развёртки : Прогрессивная
Бит/(Пиксели*Кадры) : 0.145
Размер потока : 1,22 Гбайт (56%)
Библиотека кодирования : x264 core 130 r2273 b3065e6
Настройки программы : cabac=1 / ref=7 / deblock=1:-1:-1 / analyse=0x3:0x133 / me=umh / subme=10 / psy=1 / psy_rd=1.00:0.15 / mixed_ref=0/ me_range=24 / chroma_me=1 / trellis=2 / 8x8dct=1 / cqm=0 / deadzone=21,11 / fast_pskip=0 / chroma_qp_offset=-3 / threads=6 / lookahead_threads=1 /sliced_threads=0 / nr=0 / decimate=1 / interlaced=0 / bluray_compat=0 / constrained_intra=0 / bframes=6 / b_pyramid=2 / b_adapt=2 / b_bias=0 / direct=3 /weightb=1 / open_gop=0 / weightp=2 / keyint=250 / keyint_min=23 / scenecut=40 / intra_refresh=0 / rc_lookahead=50 / rc=2pass / mbtree=1 / bitrate=1924 /ratetol=1.0 / qcomp=0.60 / qpmin=0 / qpmax=69 / qpstep=4 / cplxblur=20.0 / qblur=0.5 / ip_ratio=1.40 / aq=1:1.00
Язык : English
Default : Да
Forced : Нет
Аудио #1
Идентификатор : 2
Формат : AC-3
Формат/Информация : Audio Coding 3
Расширение режима : CM (complete main)
Параметр Endianness формата : Big
Идентификатор кодека : A_AC3
Продолжительность : 1 ч. 33 м.
Вид битрейта : Постоянный
Битрейт : 192 Кбит/сек
Каналы : 2 канала
Расположение каналов : Front: L R
Частота : 48,0 КГц
Битовая глубина : 16 бит
Метод сжатия : С потерями
Размер потока : 129 Мбайт (6%)
Заголовок : [Советский дубляж]
Язык : Russian
Default : Да
Forced : Нет
Аудио #2
Идентификатор : 3
Формат : AC-3
Формат/Информация : Audio Coding 3
Расширение режима : CM (complete main)
Параметр Endianness формата : Big
Идентификатор кодека : A_AC3
Продолжительность : 1 ч. 33 м.
Вид битрейта : Постоянный
Битрейт : 448 Кбит/сек
Каналы : 6 каналов
Расположение каналов : Front: L C R, Side: L R, LFE
Частота : 48,0 КГц
Битовая глубина : 16 бит
Метод сжатия : С потерями
Размер потока : 301 Мбайт (13%)
Заголовок : [CP-Digital]
Язык : Russian
Default : Нет
Forced : Нет
Аудио #3
Идентификатор : 4
Формат : AC-3
Формат/Информация : Audio Coding 3
Расширение режима : CM (complete main)
Параметр Endianness формата : Big
Идентификатор кодека : A_AC3
Продолжительность : 1 ч. 33 м.
Вид битрейта : Постоянный
Битрейт : 192 Кбит/сек
Каналы : 2 канала
Расположение каналов : Front: L R
Частота : 48,0 КГц
Битовая глубина : 16 бит
Метод сжатия : С потерями
Размер потока : 129 Мбайт (6%)
Заголовок : [ОРТ]
Язык : Russian
Default : Нет
Forced : Нет
Аудио #4
Идентификатор : 5
Формат : AC-3
Формат/Информация : Audio Coding 3
Расширение режима : CM (complete main)
Параметр Endianness формата : Big
Идентификатор кодека : A_AC3
Продолжительность : 1 ч. 33 м.
Вид битрейта : Постоянный
Битрейт : 192 Кбит/сек
Каналы : 2 канала
Расположение каналов : Front: L R
Частота : 48,0 КГц
Битовая глубина : 16 бит
Метод сжатия : С потерями
Размер потока : 129 Мбайт (6%)
Заголовок : [Рен-ТВ/ТВЦ]
Язык : Russian
Default : Нет
Forced : Нет
Аудио #5
Идентификатор : 6
Формат : AC-3
Формат/Информация : Audio Coding 3
Расширение режима : CM (complete main)
Параметр Endianness формата : Big
Идентификатор кодека : A_AC3
Продолжительность : 1 ч. 33 м.
Вид битрейта : Постоянный
Битрейт : 384 Кбит/сек
Каналы : 2 канала
Расположение каналов : Front: L R
Частота : 48,0 КГц
Битовая глубина : 16 бит
Метод сжатия : С потерями
Размер потока : 258 Мбайт (12%)
Язык : French
Default : Нет
Forced : Нет
Текст #1
Идентификатор : 7
Формат : UTF-8
Идентификатор кодека : S_TEXT/UTF8
Идентификатор кодека/Информация : UTF-8 Plain Text
Язык : Russian
Default : Нет
Forced : Нет
Текст #2
Идентификатор : 8
Формат : UTF-8
Идентификатор кодека : S_TEXT/UTF8
Идентификатор кодека/Информация : UTF-8 Plain Text
Язык : English
Default : Нет
Forced : Нет

Скриншоты

Яндекс.Метрика
Рейтинг@Mail.ru