Салют-7 (2017) WEB-DL [H.264/1080p-LQ]

 

Создавать темы 21-Ноя-2017 00:26

- Салют-7 (2017) WEB-DL [H.264/1080p-LQ]- Производство: Россия, Канал Россия, Кинокомпания CTB, Lemon Films Studio, Vita Aktiva
Жанр: Драма, Приключения, Триллер
Режиссер: Клим Шипенко
Продюсер: Антон Златопольский, Сергей Сельянов, Бакур Бакурадзе
Актеры: Владимир Вдовиченков, Павел Деревянко, Александр Самойленко, Виталий Хаев, Оксана Фандера, Любовь Аксенова, Роман Перелыгин, Полина Руденко, Александра Серебрякова, Мария Миронова
Описание:
Космическая станция «Салют-7», находящаяся на орбите в беспилотном режиме, неожиданно перестает отвечать на сигналы центра управления полетом. Принято решение об отправке на орбиту спасательной экспедиции. Космический экипаж должен найти «мертвую» станцию и впервые в мире провести стыковку с 20-тонной глыбой неуправляемого железа.
Космонавты понимают, что шансов вернуться на Землю у них немного. Но этот рискованный путь — единственно возможный. Они должны не только проникнуть на «Салют-7», но и оживить его. Смогут ли два человека предотвратить неминуемую катастрофу и спасти планету от падения станции? Спасательная экспедиция превращается в опасное испытание. На орбите разворачивается настоящий космический детектив. Фильм основан на реальных событиях: полет к станции «Салют-7» в 1985 году считается самым сложным полетом в истории космонавтики.
[thumb]https://www.kinopoisk.ru/film/893506/[/thumb]
Возраст: 12+ (зрителям, достигшим 12 лет)
Дата мировой премьеры: 21 сентября 2017
Дата российской премьеры: 12 октября 2017, «Наше Кино»
Релиз от: NNMClub
Продолжительность: 01:46:01
Качество видео: WEB-DL [thumb]http://multi-up.com/1177081[/thumb]
Перевод: Не требуется (русский) iTunes
Субтитры: Отсутствуют
Видео: AVC/H.264, 1920x806 (2.40:1), 4565 kbps
Аудио: 48 kHz, AC3 Dolby Digital, 3/2 (L,C,R,l,r) + LFE ch, ~384 kbps

MI

Общее
Уникальный идентификатор : 180313098894265689233556692225702919371 (0x87A70A26ABC55995BE95F08519E27CCB)
Полное имя : D:\Салют-7.2017.WEB-DL.[1080p].NNMClub.mkv
Формат : Matroska
Версия формата : Version 2
Размер файла : 3,67 Гбайт
Продолжительность : 1 ч. 46 м.
Общий поток : 4951 Кбит/сек
Название фильма : Салют-7.2017.WEB-DL.[1080p].NNMClub
Дата кодирования : UTC 2017-11-20 19:11:18
Программа кодирования : mkvmerge v8.3.0 ('Over the Horizon') 64bit
Библиотека кодирования : libebml v1.3.1 + libmatroska v1.4.2
Видео
Идентификатор : 1
Формат : AVC
Формат/Информация : Advanced Video Codec
Профиль формата : [email protected]
Параметр CABAC формата : Да
Параметр RefFrames формата : 5 кадров
Идентификатор кодека : V_MPEG4/ISO/AVC
Продолжительность : 1 ч. 46 м.
Битрейт : 4565 Кбит/сек
Ширина : 1920 пикселей
Высота : 806 пикселей
Соотношение сторон : 2,40:1
Режим частоты кадров : Постоянный
Частота кадров : 25,000 кадров/сек
Цветовое пространство : YUV
Субдискретизация насыщенности : 4:2:0
Битовая глубина : 8 бит
Тип развёртки : Прогрессивная
Бит/(Пиксели*Кадры) : 0.118
Размер потока : 3,38 Гбайт (92%)
Язык : English
Default : Да
Forced : Нет
Цветовой диапазон : Limited
Основные цвета : BT.709
Характеристики трансфера : BT.709
Коэффициенты матрицы : BT.709
Аудио
Идентификатор : 2
Формат : AC-3
Формат/Информация : Audio Coding 3
Параметр Endianness формата : Big
Идентификатор кодека : A_AC3
Продолжительность : 1 ч. 46 м.
Вид битрейта : Постоянный
Битрейт : 384 Кбит/сек
Каналы : 6 каналов
Расположение каналов : Front: L C R, Side: L R, LFE
Частота : 48,0 КГц
Частота кадров : 31,250 кадров/сек (1536 SPF)
Битовая глубина : 16 бит
Метод сжатия : С потерями
Размер потока : 291 Мбайт (8%)
Язык : Russian
ServiceKind/String : Complete Main
Default : Да
Forced : Нет
Меню
00:00:00.000 : en:Глава 1
00:06:40.400 : en:Глава 2
00:11:05.600 : en:Глава 3
00:18:02.120 : en:Глава 4
00:24:19.760 : en:Глава 5
00:30:39.960 : en:Глава 6
00:37:44.000 : en:Глава 7
00:43:57.120 : en:Глава 8
00:49:33.800 : en:Глава 9
00:56:28.360 : en:Глава 10
01:03:01.080 : en:Глава 11
01:09:37.040 : en:Глава 12
01:16:42.440 : en:Глава 13
01:24:57.280 : en:Глава 14
01:31:32.720 : en:Глава 15
01:37:10.960 : en:Глава 16
Скриншоты:
Рейтинг@Mail.ru