Пятая стража (2013) SATRip [2 сезон, серии 1-63 из 63]

 

Создавать темы 31-Янв-2014 04:47

Пятая стража (2013) SATRip [2 сезон, серии 1-63 из 63]- Год выпуска: 2013
Производство: Россия / ООО "Объединение Телевизионных Компаний"
Жанр: Мистический детектив, фантастика
Режиссер: Василий Пичул, Наталия Микрюкова
Актеры: Кирилл Козаков, Майя Вознесенская, Матвей Матвеев, Ирина Виноградова, Ростислав Бершауэр, Олег Семисынов, Егор Вадов, Полина Манохина, Станислав Любшин, Регимантас Адомайтис, Константин Днепровский, Анатолий Петченко, Олег Лебедев-Бовольский
Описание фильма:
Продолжение легендарного сериала про вампиров и князе тьмы, света и мрака, а также существовании пяти стражей. 500 лет назад было предсказано князю Тьмы, Дракуле, что Темные Силы падут от руки своего. От руки вампира. От моей руки. Любимец всех зрителей, вампир Феликс в исполнении Кирилла Козакова, снова возьмется за расследование запутанных преступлений вместе со своей обновленной командой детективов, наделенных удивительной силой, недоступной простым смертным. В составе команды - детектив-медиум, детектив-невидимка, детектив-фантом и другие. Во втором сезоне телезрителей ждут еще более загадочные преступления и еще более изощренные попытки запутать следствие.

Релиз группа: РиперАМ
Продолжительность: 63 x ~00:43:00 (серия)
Качество видео: SATRip
Видеокодек: DivX 5
Битрейт видео: ~1500 kb/s
Размер кадра: 720x400
Аудиокодек: MP3, 2 ch
Битрейт аудио: 128 kb/s
Сэмпл: Скачать

Дополнительная информация:

1. Замена некоторых актёров и объединенье их способностей.
2. 45 серия: 00:25:28 - Перепад звука. Повышена громкость. Будьте внимательны !

MediaInfo

Общее
Полное имя : E:\Фильмы\Пятая_стража_Сезон2\Pjataja.strazha.2.01.SATRip.avi
Формат : AVI
Формат/Информация : Audio Video Interleave
Размер файла : 500 Мбайт
Продолжительность : 42 м.
Общий поток : 1638 Кбит/сек
Библиотека кодирования : VirtualDub build 32842/release
Видео
Идентификатор : 0
Формат : MPEG-4 Visual
Параметр BVOP формата : 1
Параметр QPel формата : Нет
Параметр GMC формата : Без точки перехода
Параметр матрицы формата : Default (H.263)
Режим смешивания : Сжатый битовый поток
Идентификатор кодека : DX50
Идентификатор кодека/Подсказка : DivX 5
Продолжительность : 42 м.
Битрейт : 1501 Кбит/сек
Ширина : 720 пикселей
Высота : 400 пикселей
Соотношение сторон : 16:9
Частота кадров : 25,000 кадров/сек
Цветовое пространство : YUV
Субдискретизация насыщенности : 4:2:0
Битовая глубина : 8 бит
Тип развёртки : Прогрессивная
Метод сжатия : С потерями
Бит/(Пиксели*Кадры) : 0.208
Размер потока : 458 Мбайт (92%)
Библиотека кодирования : DivX 6.8.5 (UTC 2009-08-20)
Аудио
Идентификатор : 1
Формат : MPEG Audio
Версия формата : Version 1
Профиль формата : Layer 3
Режим : Joint stereo
Расширение режима : MS Stereo
Идентификатор кодека : 55
Идентификатор кодека/Подсказка : MP3
Продолжительность : 42 м.
Вид битрейта : Постоянный
Битрейт : 128 Кбит/сек
Каналы : 2 канала
Частота : 48,0 КГц
Метод сжатия : С потерями
Размер потока : 39,1 Мбайт (8%)
Выравнивание : Разделение по промежуткам
Продолжительность промежутка : 40 мс. (1,00 видеокадр)
Время предзагрузки промежутка : 500 мс.
Скриншоты:

Яндекс.Метрика
Рейтинг@Mail.ru