[ Сегодня на трекере фрилич! Идет свободное скачивание без начисления Download ]

Маша и медведь + Машины сказки / Маша и медведь + Машины сказки / Сезон: 1-4 / Серии: 1-39 + 1-26 (Олег Кузовков, Олег Ужинов, Денис Червяцов) [2009 г., Мультфильм, короткометражка, детский, комедия, HDRip, BDRip]

 

Создавать темы 31-Янв-2014 02:48

-Маша и медведь (серии 1-39) + Машины сказки (серии 1-26) / Маша и медведь + Машины сказки-- Производство: Россия
Режиссер: Олег Кузовков, Олег Ужинов, Денис Червяцов
Жанр: Мультфильм, короткометражка, детский, комедия
Год выпуска: 2009 г. - 2014 г.
Продолжительность: одна серия ~ 7 минут.
Перевод: Не требуется
Роли озвучивали: Алина Кукушкина, Борис Кутневич, Эдуард Назаров-Описание: Мультсериал про девочку Машу, которая никому не дает покоя, и в первую очередь — своему другу Медведю.-КиноПоиск
Качество видео: 1-25 серии HDRip; 26-36 серии HDTVRip; 37 серия HDRip; 38 серия BDRip; 39 серия WEBRip
Контейнер: MP4
Видео кодек: H.264
Аудио кодек: AAC
Видео: 2500 kbps, 720x402, 24 fps;
Аудио: 192 kbps, 2 ch, 44,1 khz
Cубтитры: отсутствуют

Media Info

Общее
Полное имя : F:\Download\Маша и медведь\Маша и Медведь\Маша и Медведь\01-«Первая встреча».mp4
Формат : MPEG-4
Профиль формата : Base Media / Version 2
Идентификатор кодека : mp42
Размер файла : 132 Мбайт
Продолжительность : 6 м. 53 с.
Общий поток : 2672 Кбит/сек
Дата кодирования : UTC 2013-10-03 16:03:38
Дата пометки : UTC 2013-10-03 21:04:42
Видео
Идентификатор : 1
Формат : AVC
Формат/Информация : Advanced Video Codec
Профиль формата : [email protected]
Параметр CABAC формата : Да
Параметр ReFrames формата : 3 кадра
Идентификатор кодека : avc1
Идентификатор кодека/Информация : Advanced Video Coding
Продолжительность : 6 м. 52 с.
Вид битрейта : Переменный
Битрейт : 2480 Кбит/сек
Ширина : 720 пикселей
Высота : 402 пикселя
Соотношение сторон : 16:9
Режим частоты кадров : Переменный
Частота кадров : 24,000 кадра/сек
Минимальная частота кадров : 23,994 кадра/сек
Максимальная частота кадров : 24,006 кадра/сек
Цветовое пространство : YUV
Субдискретизация насыщенности : 4:2:0
Битовая глубина : 8 бит
Тип развёртки : Прогрессивная
Бит/(Пиксели*Кадры) : 0.357
Размер потока : 122 Мбайт (93%)
Язык : English
Дата кодирования : UTC 2013-10-03 16:03:38
Дата пометки : UTC 2013-10-03 21:04:42
Аудио
Идентификатор : 2
Формат : AAC
Формат/Информация : Advanced Audio Codec
Профиль формата : LC
Идентификатор кодека : 40
Продолжительность : 6 м. 53 с.
Продолжительность оригинала : 6 м. 53 с.
Вид битрейта : Постоянный
Номинальный битрейт : 192 Кбит/сек
Каналы : 2 канала
Расположение каналов : Front: L R
Частота : 44,1 КГц
Метод сжатия : С потерями
Размер потока оригинала : 9,41 Мбайт (7%)
Язык : English
Дата кодирования : UTC 2013-10-03 16:03:38
Дата пометки : UTC 2013-10-03 21:04:42

Скриншот c названием мультфильма

Скриншоты

Список серий

01. Первая встреча!
02. До весны не будить!
03. Раз, два, три! Ёлочка, гори!
04. Весна пришла!
05. Ловись рыбка!
06. Следы невиданных зверей
07. С волками жить...
08. Позвони мне, позвони!
09. День варенья
10. Праздник на льду
11. Первый раз в первый класс
12. Граница на замке
13. Кто не спрятался, я не виноват
14. Лыжню!
15. Будьте здоровы!
16. Маша + каша
17. Дальний родственник
18. Большая стирка
19. Репетиция оркестра
20. Усатый полосатый
21. Один дома
22. Дышите! Не дышите!
23. Подкидыш
24. Приятного аппетита
25. Фокус-покус
26. Осторожно, ремонт!
27. Картина маслом
28. Ход конём
29. Хит сезона
30. Витамин роста
31. Когда все дома
32. Новая метла
33. Сладкая жизнь
34. Фотография 9 на 12
35. Трудно быть маленьким
36. Двое на одного
37. Большое путешествие
38. Нынче все наоборот
39. Сказка на ночь
-Маша и медведь. Машины сказки (серии 1-26) / Маша и медведь. Машины сказки-- Производство: Россия
Режиссер: Ринат Газизов, Денис Червяцов
Жанр: Мультфильм, короткометражка, детский, комедия
Год выпуска: 2011 г. - 2013 г.
Продолжительность: серия ~ 00:05:50
Общая продолжительность: 02:18:54
Перевод: Не требуется
Роли озвучивали: Алина Кукушкина-Описание: Маша рассказывает двум своим игрушкам, Кукле и Мишке, сказки. В этих сказках имеется юмор и своеобразие...-КиноПоиск
Качество видео: 1-12 серии BDRip
Контейнер: MP4
Видео кодек: H.264
Аудио кодек: AAC
Видео: 1500 kbps, 720x406, 24 fps
Аудио: 192 kbps, 2 ch, 44,1 khz
Cубтитры: отсутствуют
Качество видео: 13-24 серии DVDRip
Контейнер: MP4
Видео кодек: H.264
Аудио кодек: AAC
Видео: 1750 kbps, 720x406, 24 fps
Аудио: 160 kbps, 2 ch, 44,1 khz
Cубтитры: отсутствуют
Качество видео: 25-26 серии HDTVRip
Контейнер: MP4
Видео кодек: H.264
Аудио кодек: AAC
Видео: 1750 kbps, 720x406, 24 fps
Аудио: 192 kbps, 2 ch, 44,1 khz
Cубтитры: отсутствуют

Media Info

Общее
Полное имя : F:\Download\Маша и медведь\Маша и Медведь\Машины сказки\01. Волк и семеро козлят.mp4
Формат : MPEG-4
Профиль формата : Base Media
Идентификатор кодека : isom
Размер файла : 89,1 Мбайт
Продолжительность : 7 м. 38 с.
Режим общего битрейта : Переменный
Общий поток : 1632 Кбит/сек
Видео
Идентификатор : 1
Формат : AVC
Формат/Информация : Advanced Video Codec
Профиль формата : [email protected]
Параметр CABAC формата : Нет
Параметр ReFrames формата : 1 кадр
Параметр GOP формата : M=1, N=12
Идентификатор кодека : avc1
Идентификатор кодека/Информация : Advanced Video Coding
Продолжительность : 7 м. 38 с.
Битрейт : 1500 Кбит/сек
Ширина : 720 пикселей
Высота : 406 пикселей
Соотношение сторон : 16:9
Режим частоты кадров : Постоянный
Частота кадров : 24,000 кадра/сек
Цветовое пространство : YUV
Субдискретизация насыщенности : 4:2:0
Битовая глубина : 8 бит
Тип развёртки : Прогрессивная
Бит/(Пиксели*Кадры) : 0.214
Размер потока : 80,7 Мбайт (91%)
Библиотека кодирования : x264 core 77
Настройки программы : cabac=0 / ref=1 / deblock=0:0:0 / analyse=0x1:0 / me=dia / subme=8 / psy=1 / psy_rd=1.0:0.0 / mixed_ref=0 / me_range=16 / chroma_me=0 / trellis=0 / 8x8dct=0 / cqm=0 / deadzone=21,11 / chroma_qp_offset=-2 / threads=1 / nr=0 / decimate=1 / mbaff=0 / constrained_intra=0 / bframes=0 / keyint=12 / keyint_min=7 / scenecut=0 / rc_lookahead=12 / rc=abr / mbtree=1 / bitrate=1500 / ratetol=1.0 / qcomp=0.60 / qpmin=10 / qpmax=51 / qpstep=4 / ip_ratio=1.41 / aq=1:1.00
Аудио
Идентификатор : 2
Формат : AAC
Формат/Информация : Advanced Audio Codec
Профиль формата : LC
Идентификатор кодека : 40
Продолжительность : 7 м. 38 с.
Вид битрейта : Переменный
Битрейт : 150 Кбит/сек
Каналы : 2 канала
Расположение каналов : Front: L R
Частота : 44,1 КГц
Метод сжатия : С потерями
Размер потока : 8,19 Мбайт (9%)

Скриншот c названием мультфильма

Скриншоты

Список серий

01. Волк и семеро козлят
02. Гуси-Лебеди
03. Лиса и Заяц
04. Красная шапочка
05. Морозко
06. Волк и лиса
07. Вершки и корешки
08. Царевна-лягушка
09. Снегурочка
10. Мальчик с пальчик
11. Крошечка-хаврошечка
12. Бычок смоляной бочок
13. Три поросенка
14. Храбрый портняжка
15. Али-Баба
16. Золушка
17. Калиф-аист
18. Джек и бобовое зернышко
19. Свинопас
20. Синяя борода
21. По щучьему велению
22. Лисичка со скалочкой
23. Каша из топора
24. Пойди туда - не знаю куда, принеси то - не знаю что
25. Петушок - Золотой гребешок
26. Конек-Горбунок
Яндекс.Метрика
Рейтинг@Mail.ru