[ Сегодня на трекере фрилич! Идет свободное скачивание без начисления Download ]

Тебе конец! / You're Next (Адам Вингард / Adam Wingard) [2013 г., ужасы, триллер, комедия, BDRip-AVC] Dub + Sub (Rus, Eng)[Jolly Roger]

 

Создавать темы 29-Янв-2014 23:18

--Тебе конец! / You're Next--«Вы уверены, что закрыли дверь?»- -Производство: США, HanWay Films, Snoot Entertainment
Год выпуска: 2013 г.
Жанр: ужасы, триллер, комедия
Продолжительность: 01:34:31--Мировая премьера: 10 сентября 2011
Российская премьера: 29 августа 2013, «Вольга»
Релиз на DVD: 30 января 2014, «Вольга»--Перевод: Профессиональный (полное дублирование)--Режиссер: Адам Вингард / Adam Wingard--В ролях: Шарни Винсон, Николас Туччи, Венди Гленн, Эй Джей Боуэн, Джо Сванберг, Барбара Крэмптон, Роб Моран, Маргарет Лэни, Эми Саймец, Тай Уэст--Описание: Банда маньяков в звериных масках, вооруженных топорами и арбалетами, вторгается в загородный дом семьи Дэвисон. Жертвы оказываются в западне… Неожиданно среди них находится один достойный противник, способный дать отпор убийцам.-- --Качество видео: BDRip-AVC
Контейнер: MKV
Видео кодек: H.264
Аудио кодек: AC3
Видео: AVC at 1779 Кбит/сек, 1072x448 at 23,976 fps
Аудио: 48 kHz, AC3 Dolby Digital, 3/2 (L,C,R,l,r) + LFE ch, ~448 kbps
Cубтитры: русские, английские (отключаемые)

MediaInfo | x264

x264

x264 [info]: using SAR=1/1
x264 [info]: using cpu capabilities: MMX2 SSE2Fast SSSE3 SSE4.2 AVX
x264 [info]: profile High, level 4.1
x264 [info]: frame I:883 Avg QP:11.98 size: 64797 PSNR Mean Y:51.56 U:55.00 V:56.02 Avg:52.40 Global:51.87
x264 [info]: frame P:32913 Avg QP:14.76 size: 18302 PSNR Mean Y:50.01 U:54.83 V:55.89 Avg:50.86 Global:50.19
x264 [info]: frame B:101998 Avg QP:16.00 size: 5860 PSNR Mean Y:49.19 U:52.78 V:54.02 Avg:50.07 Global:49.28
x264 [info]: consecutive B-frames: 4.9% 4.1% 10.9% 9.7% 16.7% 38.7% 11.3% 3.5%
x264 [info]: mb I I16..4: 15.3% 66.5% 18.2%
x264 [info]: mb P I16..4: 3.9% 16.2% 2.0% P16..4: 51.3% 11.4% 7.9% 0.5% 0.2% skip: 6.4%
x264 [info]: mb B I16..4: 0.3% 1.0% 0.1% B16..8: 44.0% 9.6% 2.0% direct: 5.4% skip:37.7% L0:44.2% L1:48.1% BI: 7.7%
x264 [info]: 8x8 transform intra:72.1% inter:61.4%
x264 [info]: direct mvs spatial:99.3% temporal:0.7%
x264 [info]: coded y,uvDC,uvAC intra: 74.9% 73.6% 54.2% inter: 19.2% 15.7% 3.3%
x264 [info]: i16 v,h,dc,p: 40% 9% 12% 38%
x264 [info]: i8 v,h,dc,ddl,ddr,vr,hd,vl,hu: 12% 8% 12% 9% 12% 12% 11% 12% 12%
x264 [info]: i4 v,h,dc,ddl,ddr,vr,hd,vl,hu: 12% 7% 7% 11% 15% 14% 12% 11% 12%
x264 [info]: i8c dc,h,v,p: 44% 24% 19% 12%
x264 [info]: Weighted P-Frames: Y:2.7% UV:1.4%
x264 [info]: ref P L0: 48.0% 4.2% 19.4% 9.0% 7.4% 5.6% 5.3% 1.2% 0.0%
x264 [info]: ref B L0: 70.5% 15.1% 7.4% 4.1% 2.0% 0.8%
x264 [info]: ref B L1: 90.3% 9.7%
x264 [info]: SSIM Mean Y:0.9893016 (19.707db)
x264 [info]: PSNR Mean Y:49.407 U:53.291 V:54.490 Avg:50.275 Global:49.494 kb/s:1775.92
x264 [total]: encoded 135794 frames, 6.61 fps, 1775.92 kb/s
Общее
Уникальный идентификатор : 170927401668743195661592863896066967314 (0x80976B8CEB7066C080DDBC8A354DC712)
Полное имя : H:\Tebe.konec.2013.D.BDRip-AVC.1.46Gb_JRG.mkv
Формат : Matroska
Версия формата : Version 4 / Version 2
Размер файла : 1,47 Гбайт
Продолжительность : 1 ч. 34 м.
Общий поток : 2226 Кбит/сек
Название фильма : The Jolly Roger Release Group by http://pirat.ca
Дата кодирования : UTC 2014-01-29 13:55:15
Программа кодирования : mkvmerge v6.2.0 ('Promised Land') built on Apr 28 2013 12:22:01
Библиотека кодирования : libebml v1.3.0 + libmatroska v1.4.0
Видео
Идентификатор : 1
Формат : AVC
Формат/Информация : Advanced Video Codec
Профиль формата : [email protected]
Параметр CABAC формата : Да
Параметр ReFrames формата : 7 кадров
Идентификатор кодека : V_MPEG4/ISO/AVC
Продолжительность : 1 ч. 34 м.
Битрейт : 1779 Кбит/сек
Ширина : 1072 пикселя
Высота : 448 пикселей
Соотношение сторон : 2,40:1
Режим частоты кадров : Постоянный
Частота кадров : 23,976 кадра/сек
Цветовое пространство : YUV
Субдискретизация насыщенности : 4:2:0
Битовая глубина : 8 бит
Тип развёртки : Прогрессивная
Бит/(Пиксели*Кадры) : 0.154
Размер потока : 1,14 Гбайт (78%)
Библиотека кодирования : x264 core 130 r2273 b3065e6
Настройки программы : cabac=1 / ref=7 / deblock=1:-1:-1 / analyse=0x3:0x133 / me=umh / subme=10 / psy=1 / psy_rd=1.00:0.15 / mixed_ref=0 / me_range=24 / chroma_me=1 / trellis=2 / 8x8dct=1 / cqm=0 / deadzone=21,11 / fast_pskip=0 / chroma_qp_offset=-3 / threads=6 / lookahead_threads=1 / sliced_threads=0 / nr=0 / decimate=1 / interlaced=0 / bluray_compat=0 / constrained_intra=0 / bframes=7 / b_pyramid=2 / b_adapt=2 / b_bias=0 / direct=3 / weightb=1 / open_gop=0 / weightp=2 / keyint=250 / keyint_min=23 / scenecut=40 / intra_refresh=0 / rc_lookahead=50 / rc=2pass / mbtree=1 / bitrate=1779 / ratetol=1.0 / qcomp=0.60 / qpmin=0 / qpmax=69 / qpstep=4 / cplxblur=20.0 / qblur=0.5 / ip_ratio=1.40 / aq=1:1.00
Default : Да
Forced : Нет
Аудио
Идентификатор : 2
Формат : AC-3
Формат/Информация : Audio Coding 3
Расширение режима : CM (complete main)
Параметр Endianness формата : Big
Идентификатор кодека : A_AC3
Продолжительность : 1 ч. 34 м.
Вид битрейта : Постоянный
Битрейт : 448 Кбит/сек
Каналы : 6 каналов
Расположение каналов : Front: L C R, Side: L R, LFE
Частота : 48,0 КГц
Битовая глубина : 16 бит
Метод сжатия : С потерями
Размер потока : 302 Мбайт (20%)
Язык : Russian
Default : Да
Forced : Нет
Текст #1
Идентификатор : 3
Формат : UTF-8
Идентификатор кодека : S_TEXT/UTF8
Идентификатор кодека/Информация : UTF-8 Plain Text
Язык : Russian
Default : Нет
Forced : Нет
Текст #2
Идентификатор : 4
Формат : UTF-8
Идентификатор кодека : S_TEXT/UTF8
Идентификатор кодека/Информация : UTF-8 Plain Text
Язык : English
Default : Нет
Forced : Нет

Скриншоты

Трейлер

Трейлер
Яндекс.Метрика
Рейтинг@Mail.ru