[ Сегодня на трекере фрилич! Идет свободное скачивание без начисления Download ]

Мне хватит миллиона / Blank Check (1994) WEB-DLRip 720p

 

Создавать темы 24-Окт-2017 16:04

-Мне хватит миллиона / Blank Check (1994) WEB-DLRip 720p -Название: Мне хватит миллиона
Оригинальное название: Blank Check
Год выпуска: 1994
Жанр: комедия, семейный
Выпущено: США, Agelson, Baumgarten, Walt Disney Pictures
Продолжительность: 01:33:14
Перевод: Профессиональный двухголосый, любительский двухголосый, авторский одноголосый
Режиссер: Руперт Вейнрайт
В ролях: Брайан Бонсалл, Карен Даффи, Джеймс Ребхорн, Джейн Эткинсон, Майкл Фаустино, Крис Деметрал, Мигель Феррер, Майкл Лернер, Тоун Лок, Рик Дукомман-О фильме:
В руки к юному Престону случайно попадает незаполненный банковский чек. Решив, что ему вполне хватит миллиона долларов, он, не задумываясь, вписывает в него скромную сумму в миллион долларов, одним росчерком пера меняя свою жизнь. Новоиспеченный миллионер сразу начинает воплощать самые заветные мечты: собственный дом, роскошный лимузин и лучшие в мире игрушки. Но когда ФБР и владельцы чека наперегонки бросаются в погоню, он понимает, что за миллион долларов можно приобрести еще больше проблем.-
Файл
Качество: WEB-DLRip 720p
Видео: MPEG-4 AVC, 5023 Кбит/сек, 1280x720, 23,976 кадра/сек
Аудио 1: Русский: AC3, 2 ch, 192 Кбит/сек |Профессиональный двухголосый, СТС|
Аудио 2: Русский: AC3, 2 ch, 192 Кбит/сек |Любительский двухголосый, Stalk, weldika|
Аудио 3: Русский: AC3, 2 ch, 192 Кбит/сек |Авторский одноголосый, А. Гаврилов|
Аудио 4: Английский: EAC3, 2 ch, 224 Кбит/сек |Оригинал|
Субтитры: Русские, английские
Навигация по главам: есть-

MediaInfo

x264 [info]: frame I:943 Avg QP:15.37 size: 129451
x264 [info]: frame P:31998 Avg QP:18.72 size: 47028
x264 [info]: frame B:101189 Avg QP:20.27 size: 18791
-------------------------------------------------------------------------
Общее
Уникальный идентификатор : 223788777895828205391971080666743653212 (0xA85C269E8C1CA27AB7F237C8B15D435C)
Полное имя : Мне.хватит.миллиона.1994.WEB-DLRip.720p.KORSAR.mkv
Формат : Matroska
Версия формата : Version 2
Размер файла : 3,79 Гбайт
Продолжительность : 1 ч. 33 м.
Общий поток : 5826 Кбит/сек
Дата кодирования : UTC 2017-09-18 20:10:57
Программа кодирования : mkvmerge v5.8.0 ('No Sleep / Pillow') built on Sep 2 2012 15:37:04
Библиотека кодирования : libebml v1.2.3 + libmatroska v1.3.0
Видео
Идентификатор : 1
Формат : AVC
Формат/Информация : Advanced Video Codec
Профиль формата : [email protected]
Параметр CABAC формата : Да
Параметр ReFrames формата : 9 кадров
Идентификатор кодека : V_MPEG4/ISO/AVC
Продолжительность : 1 ч. 33 м.
Битрейт : 5023 Кбит/сек
Ширина : 1280 пикселей
Высота : 720 пикселей
Соотношение сторон : 16:9
Режим частоты кадров : Постоянный
Частота кадров : 23,976 (24000/1001) кадра/сек
Цветовое пространство : YUV
Субдискретизация насыщенности : 4:2:0
Битовая глубина : 8 бит
Тип развёртки : Прогрессивная
Бит/(Пиксели*Кадры) : 0.227
Размер потока : 3,20 Гбайт (84%)
Заголовок : RIP | MZMA
Библиотека кодирования : x264 core 148 r2638 7599210
Настройки программы : cabac=1 / ref=9 / deblock=1:-3:-2 / analyse=0x3:0x113 / me=umh / subme=11 / psy=1 / psy_rd=1.00:0.00 / mixed_ref=1 / me_range=48 / chroma_me=1 / trellis=2 / 8x8dct=1 / cqm=0 / deadzone=21,11 / fast_pskip=0 / chroma_qp_offset=-2 / threads=6 / lookahead_threads=1 / sliced_threads=0 / nr=0 / decimate=0 / interlaced=0 / bluray_compat=0 / constrained_intra=0 / bframes=16 / b_pyramid=2 / b_adapt=2 / b_bias=0 / direct=3 / weightb=1 / open_gop=0 / weightp=2 / keyint=250 / keyint_min=23 / scenecut=40 / intra_refresh=0 / rc_lookahead=60 / rc=2pass / mbtree=1 / bitrate=5023 / ratetol=1.0 / qcomp=0.60 / qpmin=0 / qpmax=69 / qpstep=4 / cplxblur=20.0 / qblur=0.5 / vbv_maxrate=50000 / vbv_bufsize=62500 / nal_hrd=none / filler=0 / ip_ratio=1.40 / aq=1:0.90
Язык : English
Default : Да
Forced : Нет
Цветовой диапазон : Limited
Основные цвета : BT.709
Характеристики трансфера : BT.709
Коэффициенты матрицы : BT.709
Аудио #1
Идентификатор : 2
Формат : AC-3
Формат/Информация : Audio Coding 3
Параметр Endianness формата : Big
Идентификатор кодека : A_AC3
Продолжительность : 1 ч. 33 м.
Вид битрейта : Постоянный
Битрейт : 192 Кбит/сек
Каналы : 2 канала
Расположение каналов : Front: L R
Частота : 48,0 КГц
Частота кадров : 31,250 кадров/сек (1536 spf)
Битовая глубина : 16 бит
Метод сжатия : С потерями
Размер потока : 128 Мбайт (3%)
Заголовок : DVO | СТС
Язык : Russian
Default : Да
Forced : Нет
Аудио #2
Идентификатор : 3
Формат : AC-3
Формат/Информация : Audio Coding 3
Параметр Endianness формата : Big
Идентификатор кодека : A_AC3
Продолжительность : 1 ч. 33 м.
Вид битрейта : Постоянный
Битрейт : 192 Кбит/сек
Каналы : 2 канала
Расположение каналов : Front: L R
Частота : 48,0 КГц
Частота кадров : 31,250 кадров/сек (1536 spf)
Битовая глубина : 16 бит
Метод сжатия : С потерями
Размер потока : 128 Мбайт (3%)
Заголовок : DVO | Stalk, weldika
Язык : Russian
Default : Нет
Forced : Нет
Аудио #3
Идентификатор : 4
Формат : AC-3
Формат/Информация : Audio Coding 3
Параметр Endianness формата : Big
Идентификатор кодека : A_AC3
Продолжительность : 1 ч. 33 м.
Вид битрейта : Постоянный
Битрейт : 192 Кбит/сек
Каналы : 2 канала
Расположение каналов : Front: L R
Частота : 48,0 КГц
Частота кадров : 31,250 кадров/сек (1536 spf)
Битовая глубина : 16 бит
Метод сжатия : С потерями
Размер потока : 128 Мбайт (3%)
Заголовок : AVO | А. Гаврилов
Язык : Russian
Default : Нет
Forced : Нет
Аудио #4
Идентификатор : 5
Формат : E-AC-3
Формат/Информация : Enhanced Audio Coding 3
Параметр Endianness формата : Big
Идентификатор кодека : A_EAC3
Продолжительность : 1 ч. 33 м.
Вид битрейта : Постоянный
Битрейт : 224 Кбит/сек
Каналы : 2 канала
Расположение каналов : Front: L R
Частота : 48,0 КГц
Частота кадров : 187,500 кадров/сек (256 spf)
Метод сжатия : С потерями
Размер потока : 149 Мбайт (4%)
Заголовок : Original
Язык : English
Default : Нет
Forced : Нет
Текст #1
Идентификатор : 6
Формат : UTF-8
Идентификатор кодека : S_TEXT/UTF8
Идентификатор кодека/Информация : UTF-8 Plain Text
Язык : Russian
Default : Нет
Forced : Нет
Текст #2
Идентификатор : 7
Формат : UTF-8
Идентификатор кодека : S_TEXT/UTF8
Идентификатор кодека/Информация : UTF-8 Plain Text
Заголовок : Small
Язык : English
Default : Нет
Forced : Нет
Текст #3
Идентификатор : 8
Формат : UTF-8
Идентификатор кодека : S_TEXT/UTF8
Идентификатор кодека/Информация : UTF-8 Plain Text
Заголовок : Big
Язык : English
Default : Нет
Forced : Нет
Меню
00:00:00.000 : en:Opening Credits
00:10:08.000 : en:Laundering The Loot
00:14:00.000 : en:Parking Lot Incident
00:17:01.000 : en:Preston Fills In The Amount
00:18:58.000 : en:Check Cashing Time
00:25:43.000 : en:MacIntosh Buys A House
00:32:21.000 : en:Shopping Spree
00:36:10.000 : en:Movin' In
00:40:39.000 : en:A Visit From Shay
00:46:59.000 : en:First Date
00:51:22.000 : en:Foiled Again
00:58:18.000 : en:Park Chase
01:05:17.000 : en:The Big Birthday Bash
01:10:36.000 : en:Waters Talks To MacIntosh
01:14:19.000 : en:The Party's Over
01:18:43.000 : en:The Kid Fights Back
01:24:00.000 : en:Arresting Mr. MacIntosh
01:26:04.000 : en:In Only Six Years!
01:30:01.000 : en:End Credits

Скриншоты:

Рейтинг@Mail.ru