[ Сегодня на трекере фрилич! Идет свободное скачивание без начисления Download ]

Мой убийца (Костас Марсан) [2016, детектив, триллер, WEB-DLRip-AVC] RUS

 

Создавать темы 14-Окт-2017 20:03

Мой убийца
«Преступление должно быть раскрыто»

Страна: Россия
Жанр: детектив, триллер
Год выпуска: 2016
Продолжительность: 01:43:00
Перевод: Не требуется
Субтитры: нет
Оригинальная аудиодорожка: русский
Режиссер: Костас Марсан
В ролях: Вячеслав Лавернов, Галина Тихонова, Федот Львов, Степан Федоренко, Илья Яковлев, Дьулустан Семенов, Прокопий Данилов, Дмитрий Алексеев, Иван Мишагин, Дмитрий Трофимов, Зоя Багынанова
Описание:
Молодой оперативник Джулус расследует убийство девушки. Вскоре он находит подозреваемого, который признается в преступлении. Вроде бы дело можно закрывать, но Джулус замечает странности и нестыковки в показаниях. Главный герой, несмотря на неодобрение начальства, решает подробнее разобраться в этом деле. Цепочка событий приводит его в поселение золотодобытчиков, где наружу всплывают новые тайны погибшей девушки.
Автор рипа: stalkerok
Сэмпл
Качество видео: WEB-DLRip-AVC [Moi.ubiycha.2016.WEB-DLRip.1080p.MediaClub]
Формат видео: MKV
Видео кодек: AVC
Аудио кодек: AC3
Видео: 1740 Кбит/сек, 1152x480 (2.40:1), 25 кадр/сек, AVC
Аудио: 224 Кбит/сек, 48 КГц, 2.0, AC3

Доп. информация

МИ

x264/MediaInfo
x264 [info]: frame I:878 Avg QP:15.59 size: 53352
x264 [info]: frame P:36324 Avg QP:17.32 size: 17711
x264 [info]: frame B:117308 Avg QP:19.40 size: 5582
General
Unique ID : 254432719032924553303832835162354434013 (0xBF69F590DDD2EA488F64CB33CB933FDD)
Complete name : M:\!Rips2017\Moj ubijca\Moj.ubijca.2016.WEB-DLRip-AVC.RUS.stalkerok.new-team.mkv
Format : Matroska
Format version : Version 4 / Version 2
File size : 1.41 GiB
Duration : 1 h 43 min
Overall bit rate : 1 965 kb/s
Movie name : Мой убийца (2016) (Rip by stalkerok)
Encoded date : UTC 2017-10-13 11:56:43
Writing application : mkvmerge v8.6.1 ('Flying') 64bit
Writing library : libebml v1.3.3 + libmatroska v1.4.4
Video
ID : 1
Format : AVC
Format/Info : Advanced Video Codec
Format profile : [email protected]
Format settings, CABAC : Yes
Format settings, ReFrames : 13 frames
Codec ID : V_MPEG4/ISO/AVC
Duration : 1 h 43 min
Bit rate : 1 741 kb/s
Width : 1 152 pixels
Height : 480 pixels
Display aspect ratio : 2.40:1
Frame rate mode : Constant
Frame rate : 25.000 FPS
Color space : YUV
Chroma subsampling : 4:2:0
Bit depth : 8 bits
Scan type : Progressive
Bits/(Pixel*Frame) : 0.126
Stream size : 1.25 GiB (89%)
Title : Мой убийца (2016) (Rip by stalkerok)
Writing library : x264 core 150 r2833kMod df79067
Encoding settings : cabac=1 / ref=13 / deblock=1:-3:-2 / analyse=0x3:0x133 / me=umh / subme=11 / psy=1 / fade_compensate=0.00 / psy_rd=1.00:0.00 / mixed_ref=1 / me_range=32 / chroma_me=1 / trellis=2 / 8x8dct=1 / cqm=0 / deadzone=21,11 / fast_pskip=0 / chroma_qp_offset=-2 / threads=12 / lookahead_threads=3 / sliced_threads=0 / nr=0 / decimate=1 / interlaced=0 / bluray_compat=0 / constrained_intra=0 / bframes=13 / b_pyramid=2 / b_adapt=2 / b_bias=0 / direct=3 / weightb=1 / open_gop=0 / weightp=2 / keyint=250 / keyint_min=25 / scenecut=40 / intra_refresh=0 / rc_lookahead=60 / rc=crf / mbtree=0 / crf=18.6000 / qcomp=0.65 / qpmin=0 / qpmax=69 / qpstep=4 / vbv_maxrate=50000 / vbv_bufsize=62500 / crf_max=0.0 / nal_hrd=none / filler=0 / ip_ratio=1.40 / pb_ratio=1.30 / aq=3:0.80 / zones=147627,154509,q=33
Default : Yes
Forced : No
Audio
ID : 2
Format : AC-3
Format/Info : Audio Coding 3
Mode extension : CM (complete main)
Format settings, Endianness : Big
Codec ID : A_AC3
Duration : 1 h 42 min
Bit rate mode : Constant
Bit rate : 224 kb/s
Channel(s) : 2 channels
Channel positions : Front: L R
Sampling rate : 48.0 kHz
Frame rate : 31.250 FPS (1536 spf)
Compression mode : Lossy
Stream size : 164 MiB (11%)
Default : Yes
Forced : No

Скриншоты:

Рейтинг@Mail.ru