Блэйд 3: Троица / Blade: Trinity (Дэвид С. Гойер / David S. Goyer) [2004 г., ужасы, фантастика, фэнтези, боевик, BDRip, 720p] [Unrated] DVO (Гланц, Королёва) + Original (Eng)

 

Создавать темы 28-Янв-2014 22:00

- -Блэйд 3: Троица / Blade: Trinity / [Unrated]-
Производство: "New Line Cinema" США
Год выпуска: 2004 г.
Жанр: ужасы, фантастика, фэнтези, боевик
Продолжительность: 02:02:22
Мировая премьера: 7 декабря 2004
Российская премьера: 10 февраля 2005, «Каро-Премьер»
Дата выхода DVD: 7 июля 2011, «CP-Digital»
Перевод: Двухголосый, закадровый [П. Гланц, И. Королёва]
Внимание!!! Присутствует ненормативная лексика
Оригинальный аудиопоток: Английский
Режиссер: Дэвид С. Гойер / David S. Goyer-В ролях:
Уэсли Снайпс, Крис Кристофферсон, Доминик Пёрселл, Джессика Бил, Райан Рейнольдс, Паркер Поузи, Марк Берри, Джон Майкл Хиггинс, Каллум Кит Ренни, Пол Левески-Описание:
Фатальные события могут привести к захвату власти в мире вампирами. Блэйд — единственный, кто может предотвратить страшные перемены и воспрепятствовать превращению мира в «Планету вампиров».
Стремясь помешать Блэйду в реализации его плана, верхушка вампиров во главе с Даникой Талос натравливают на него людей. Полиция начинает охоту на того, кого теперь все считают жутким монстром…
-
Качество видео: BDRip
Контейнер: MKV
Стандарт разрешения: 720p
Видео кодек: H.264
Аудио кодек: AC3
Видео: 1280x544; 4950 Kbps; 23.976 fps
Аудио #1: AC3; 640 Kbps; 6 ch; (Front: L C R, Side: L R, +LFE); 48.0 KHz (Rus)
Аудио #2: AC3; 640 Kbps; 6 ch; (Front: L C R, Side: L R, +LFE); 48.0 KHz (Eng)

Media Info

D:\Torrents!!!!!!!!!!!!!!!!!!!!!!!!!\Blade.Trinity.2004.U.BDRip.720p.mkv
General
Unique ID : 214407873941050562409490260748293389025 (0xA14D745860DE8B4C88BA915B395C3AE1)
Complete name : D:\Torrents!!!!!!!!!!!!!!!!!!!!!!!!!\Blade.Trinity.2004.U.BDRip.720p.mkv
Format : Matroska
Format version : Version 4 / Version 2
File size : 5.32 GiB
Duration : 2h 2mn
Overall bit rate : 6 222 Kbps
Movie name : Blade Trinity
Encoded date : UTC 2014-01-14 21:28:00
Writing application : mkvmerge v6.7.0 ('Back to the Ground') 64bit built on Jan 8 2014 15:10:52
Writing library : libebml v1.3.0 + libmatroska v1.4.1
Video #1
ID : 1
Format : AVC
Format/Info : Advanced Video Codec
Format profile : [email protected]
Format settings, CABAC : Yes
Format settings, ReFrames : 10 frames
Codec ID : V_MPEG4/ISO/AVC
Duration : 2h 2mn
Bit rate : 4 950 Kbps
Width : 1 280 pixels
Height : 544 pixels
Display aspect ratio : 2.35:1
Frame rate mode : Constant
Frame rate : 23.976 fps
Color space : YUV
Chroma subsampling : 4:2:0
Bit depth : 8 bits
Scan type : Progressive
Bits/(Pixel*Frame) : 0.296
Stream size : 4.12 GiB (77%)
Writing library : x264 core 140 r2377 1ca7bb9
Encoding settings : cabac=1 / ref=10 / deblock=1:-3:-3 / analyse=0x3:0x133 / me=umh / subme=11 / psy=1 / psy_rd=1.00:0.00 / mixed_ref=1 / me_range=32 / chroma_me=1 / trellis=2 / 8x8dct=1 / cqm=0 / deadzone=21,11 / fast_pskip=0 / chroma_qp_offset=-2 / threads=12 / lookahead_threads=1 / sliced_threads=0 / nr=0 / decimate=0 / interlaced=0 / bluray_compat=0 / constrained_intra=0 / bframes=6 / b_pyramid=2 / b_adapt=2 / b_bias=0 / direct=3 / weightb=1 / open_gop=0 / weightp=2 / keyint=240 / keyint_min=23 / scenecut=40 / intra_refresh=0 / rc=2pass / mbtree=0 / bitrate=4950 / ratetol=1.0 / qcomp=0.60 / qpmin=0 / qpmax=69 / qpstep=4 / cplxblur=20.0 / qblur=0.5 / ip_ratio=1.40 / pb_ratio=1.30 / aq=1:0.80
Default : Yes
Forced : No
Audio #2
ID : 2
Format : AC-3
Format/Info : Audio Coding 3
Mode extension : CM (complete main)
Format settings, Endianness : Big
Codec ID : A_AC3
Duration : 2h 2mn
Bit rate mode : Constant
Bit rate : 640 Kbps
Channel count : 6 channels
Channel positions : Front: L C R, Side: L R, LFE
Sampling rate : 48.0 KHz
Bit depth : 16 bits
Compression mode : Lossy
Stream size : 560 MiB (10%)
Title : DVoice (Glanz, Koroleva)
Language : Russian
Default : Yes
Forced : No
Audio #3
ID : 3
Format : AC-3
Format/Info : Audio Coding 3
Mode extension : CM (complete main)
Format settings, Endianness : Big
Codec ID : A_AC3
Duration : 2h 2mn
Bit rate mode : Constant
Bit rate : 640 Kbps
Channel count : 6 channels
Channel positions : Front: L C R, Side: L R, LFE
Sampling rate : 48.0 KHz
Bit depth : 16 bits
Compression mode : Lossy
Stream size : 560 MiB (10%)
Title : English
Language : English
Default : No
Forced : No
Яндекс.Метрика
Рейтинг@Mail.ru