План побега / Escape Plan (Микаэль Хофстрём / Mikael Håfström) [2013 г., боевик, триллер, детектив, BDRip-AVC] Dub [iTunes] + Original (Eng) + Sub (Eng) [Jolly Roger]

 

Создавать темы 28-Янв-2014 21:58

-План побега / Escape Plan- Год выпуска: 2013 г.
Производство: США
Жанр: боевик, триллер, детектив
Продолжительность: 01:55:35
Перевод: Профессиональный (полное дублирование) [iTunes]
Режиссер: Микаэль Хофстрём / Mikael Håfström
В ролях: Сильвестр Сталлоне, Арнольд Шварценеггер, Джеймс Кэвизел, Фифти Сент, Винни Джонс, Винсент Д’Онофрио, Эми Райан, Фаран Таир, Сэм Нил, Мэтт Джералд
Описание: Один из самых выдающихся мировых специалистов по системам безопасности соглашается на последнюю рисковую операцию: сбежать из суперсекретной высокотехнологичной тюрьмы, которую называют «Гробницей». Преданный Рэй Бреслин вынужден прибегнуть к помощи напарника — заключенного Эмиля Ротмайера, чтобы разработать отчаянный и практически неосуществимый план побега из самой защищенной тюрьмы в мире! Качество видео: BDRip-AVC
Контейнер: MKV
Видео кодек: H.264
Аудио кодек: AC3
Видео: MPEG4 Video (H264) 1040x432 23.976fps 2051 Kbps
Аудио 1: Dolby AC3 48000Hz 6ch 384 kbps / Русский
Аудио 2: Dolby AC3 48000Hz 2ch 256 kbps / Английский
Субтитры: английские (отключаемые)

Log 2-nd pass

avs [info]: 1040x432p 1:1 @ 2500000/104271 fps (cfr)
x264 [info]: using SAR=1/1
x264 [info]: using cpu capabilities: MMX2 SSE2Fast SSSE3 Cache64 SlowShuffle
x264 [info]: profile High, level 4.1
x264 [info]: frame I:2006 Avg QP:11.24 size: 74269
x264 [info]: frame P:40907 Avg QP:14.63 size: 21846
x264 [info]: frame B:123378 Avg QP:16.89 size: 5960
x264 [info]: consecutive B-frames: 4.4% 4.8% 11.9% 18.2% 18.3% 32.6% 9.9%
x264 [info]: mb I I16..4: 11.6% 63.3% 25.1%
x264 [info]: mb P I16..4: 2.5% 13.4% 2.5% P16..4: 33.5% 22.9% 14.5% 1.2% 0.5% skip: 9.0%
x264 [info]: mb B I16..4: 0.2% 1.1% 0.2% B16..8: 36.5% 13.2% 3.3% direct: 4.5% skip:40.9% L0:42.6% L1:44.1% BI:13.3%
x264 [info]: 8x8 transform intra:71.3% inter:58.8%
x264 [info]: direct mvs spatial:97.4% temporal:2.6%
x264 [info]: coded y,uvDC,uvAC intra: 80.0% 71.0% 47.3% inter: 21.5% 12.4% 2.9%
x264 [info]: i16 v,h,dc,p: 46% 9% 5% 41%
x264 [info]: i8 v,h,dc,ddl,ddr,vr,hd,vl,hu: 12% 10% 7% 9% 13% 13% 12% 12% 13%
x264 [info]: i4 v,h,dc,ddl,ddr,vr,hd,vl,hu: 11% 9% 5% 10% 15% 14% 13% 11% 12%
x264 [info]: i8c dc,h,v,p: 39% 27% 20% 13%
x264 [info]: Weighted P-Frames: Y:2.4% UV:1.2%
x264 [info]: ref P L0: 54.3% 10.4% 16.4% 6.8% 4.8% 3.7% 3.1% 0.6% 0.0%
x264 [info]: ref B L0: 76.5% 12.7% 6.0% 2.8% 1.4% 0.5%
x264 [info]: ref B L1: 91.5% 8.5%
x264 [info]: kb/s:2050.78
x264 [total]: encoded 166291 frames, 2.10 fps, 2050.78 kb/s

Media Info

Общее
Уникальный идентификатор : 224984427991244528461187591593757985716 (0xA9426CB869B231DDA7DF8F9B69DF4BB4)
Полное имя : G:\Plan.pobega.2013.H.264.BDRip-AVC.JRG.mkv
Формат : Matroska
Версия формата : Version 4 / Version 2
Размер файла : 2,17 Гбайт
Продолжительность : 1 ч. 55 м.
Общий поток : 2693 Кбит/сек
Название фильма : The Jolly Roger Release Group by http://Pirat.CA
Дата кодирования : UTC 2014-01-28 16:20:09
Программа кодирования : mkvmerge v6.6.0 ('The Edge Of The In Between') built on Dec 1 2013 17:55:00
Библиотека кодирования : libebml v1.3.0 + libmatroska v1.4.1
Видео
Идентификатор : 1
Формат : AVC
Формат/Информация : Advanced Video Codec
Профиль формата : [email protected]
Параметр CABAC формата : Да
Параметр ReFrames формата : 7 кадров
Идентификатор кодека : V_MPEG4/ISO/AVC
Продолжительность : 1 ч. 55 м.
Битрейт : 2051 Кбит/сек
Ширина : 1040 пикселей
Высота : 432 пикселя
Соотношение сторон : 2,40:1
Режим частоты кадров : Постоянный
Частота кадров : 23,976 кадра/сек
Цветовое пространство : YUV
Субдискретизация насыщенности : 4:2:0
Битовая глубина : 8 бит
Тип развёртки : Прогрессивная
Бит/(Пиксели*Кадры) : 0.190
Размер потока : 1,61 Гбайт (74%)
Библиотека кодирования : x264 core 130 r2273 b3065e6
Настройки программы : cabac=1 / ref=7 / deblock=1:-1:-1 / analyse=0x3:0x133 / me=umh / subme=10 / psy=1 / psy_rd=1.00:0.00 / mixed_ref=1 / me_range=24 / chroma_me=1 / trellis=2 / 8x8dct=1 / cqm=0 / deadzone=21,11 / fast_pskip=0 / chroma_qp_offset=-2 / threads=3 / lookahead_threads=1 / sliced_threads=0 / nr=0 / decimate=1 / interlaced=0 / bluray_compat=0 / constrained_intra=0 / bframes=6 / b_pyramid=2 / b_adapt=2 / b_bias=0 / direct=3 / weightb=1 / open_gop=0 / weightp=2 / keyint=250 / keyint_min=23 / scenecut=40 / intra_refresh=0 / rc_lookahead=50 / rc=2pass / mbtree=1 / bitrate=2051 / ratetol=1.0 / qcomp=0.60 / qpmin=0 / qpmax=69 / qpstep=4 / cplxblur=20.0 / qblur=0.5 / ip_ratio=1.40 / aq=1:1.00
Default : Да
Forced : Нет
Аудио #1
Идентификатор : 2
Формат : AC-3
Формат/Информация : Audio Coding 3
Расширение режима : CM (complete main)
Параметр Endianness формата : Big
Идентификатор кодека : A_AC3
Продолжительность : 1 ч. 55 м.
Вид битрейта : Постоянный
Битрейт : 384 Кбит/сек
Каналы : 6 каналов
Расположение каналов : Front: L C R, Side: L R, LFE
Частота : 48,0 КГц
Битовая глубина : 16 бит
Метод сжатия : С потерями
Размер потока : 317 Мбайт (14%)
Язык : Russian
Default : Да
Forced : Нет
Аудио #2
Идентификатор : 3
Формат : AC-3
Формат/Информация : Audio Coding 3
Расширение режима : CM (complete main)
Параметр Endianness формата : Big
Идентификатор кодека : A_AC3
Продолжительность : 1 ч. 55 м.
Вид битрейта : Постоянный
Битрейт : 256 Кбит/сек
Каналы : 2 канала
Расположение каналов : Front: L R
Частота : 48,0 КГц
Битовая глубина : 16 бит
Метод сжатия : С потерями
Размер потока : 212 Мбайт (10%)
Язык : English
Default : Нет
Forced : Нет
Текст
Идентификатор : 4
Формат : UTF-8
Идентификатор кодека : S_TEXT/UTF8
Идентификатор кодека/Информация : UTF-8 Plain Text
Язык : English
Default : Нет
Forced : Нет

Скриншоты

Создавать темы 31-Янв-2016 14:08 (спустя 2 года)

Топик был перенесен из форума Зарубежные Новинки (HD*Rip/LQ, DVDRip) в форум Зарубежные Фильмы (HD)
T_O_M
Яндекс.Метрика
Рейтинг@Mail.ru