Телекинез / Carrie (Кимберли Пирс / Kimberly Peirce) [2013 г., триллер, ужасы, драма, HDRip] Dub [iTunes]

 

Создавать темы 28-Янв-2014 09:31

--Телекинез / Carrie--«Ты ещё узнаешь её имя»- -Производство: США, Metro-Goldwyn-Mayer, Screen Gems
Год выпуска: 2013 г.
Жанр: триллер, ужасы, драма
Продолжительность: 01:39:41--Мировая премьера: 7 октября 2013
Российская премьера: 14 ноября 2013, «WDSSPR»
Релиз на DVD: 13 февраля 2014, «Двадцатый Век Фокс СНГ»
Релиз на Blu-Ray: 13 февраля 2014, «Двадцатый Век Фокс СНГ»--Перевод: Профессиональный (полное дублирование) [iTunes]--Режиссер: Кимберли Пирс / Kimberly Peirce--В ролях: Хлоя Грэйс Моретц, Джулианна Мур, Джуди Грир, Энсел Эльгорт, Портия Даблдэй, Габриэлла Уайлд, Коннор Прайс, Алекс Расселл, Мишель Нолден, Макс Топплин, Синтия Престон--Описание: Невзрачная старшеклассница по имени Кэрри с рождения обладает способностями телекинеза. Давление со стороны фанатично религиозной мамочки и постоянные издевки сверстников лишь способствует развитию ее сверхъестественных способностей. На выпускном одноклассники решают жестоко подшутить над ней, что приводит к фатальным последствиям.-- --Качество видео: HDRip
Контейнер: AVI
Видео кодек: XviD
Аудио кодек: AC3
Видео: 720x304 (2.37:1), 23.976 fps, XviD build 50 ~1699 kbps avg, 0.32 bit/pixel
Аудио: 48 kHz, AC3 Dolby Digital, 3/2 (L,C,R,l,r) + LFE ch, ~384 kbps
Cубтитры: Отсутствуют

Media Info

Общее
Полное имя : H:\Torrent2\Carrie.2013.D.HDRip_[pirat.ca].avi
Формат : AVI
Формат/Информация : Audio Video Interleave
Размер файла : 1,46 Гбайт
Продолжительность : 1 ч. 39 м.
Общий поток : 2093 Кбит/сек
Программа кодирования : VirtualDubMod 1.5.10.2 (build 2540/release)
Библиотека кодирования : VirtualDubMod build 2540/release
Видео
Идентификатор : 0
Формат : MPEG-4 Visual
Профиль формата : Advanced [email protected]
Параметр BVOP формата : 2
Параметр QPel формата : Нет
Параметр GMC формата : 3 точки перехода
Параметр матрицы формата : Выборочная
Идентификатор кодека : XVID
Идентификатор кодека/Подсказка : XviD
Продолжительность : 1 ч. 39 м.
Битрейт : 1700 Кбит/сек
Ширина : 720 пикселей
Высота : 304 пикселя
Соотношение сторон : 2,35:1
Частота кадров : 23,976 кадра/сек
Цветовое пространство : YUV
Субдискретизация насыщенности : 4:2:0
Битовая глубина : 8 бит
Тип развёртки : Прогрессивная
Метод сжатия : С потерями
Бит/(Пиксели*Кадры) : 0.324
Размер потока : 1,18 Гбайт (81%)
Библиотека кодирования : XviD 1.2.1 (UTC 2008-12-04)
Аудио
Идентификатор : 1
Формат : AC-3
Формат/Информация : Audio Coding 3
Расширение режима : CM (complete main)
Параметр Endianness формата : Big
Идентификатор кодека : 2000
Продолжительность : 1 ч. 39 м.
Вид битрейта : Постоянный
Битрейт : 384 Кбит/сек
Каналы : 6 каналов
Расположение каналов : Front: L C R, Side: L R, LFE
Частота : 48,0 КГц
Битовая глубина : 16 бит
Метод сжатия : С потерями
Размер потока : 274 Мбайт (18%)
Выравнивание : Разделение по промежуткам
Продолжительность промежутка : 42 мс. (1,00 видеокадр)
Время предзагрузки промежутка : 500 мс.

Скриншоты

Трейлер
Яндекс.Метрика
Рейтинг@Mail.ru