Va-банк / Runner Runner (Брэд Фурман / Brad Furman) [2013 г., триллер, драма, криминал, HDRip] Dub [Лицензия]

 

Создавать темы 28-Янв-2014 05:17

--Va-банк / Runner Runner
«Игра стоит свеч»
- -Производство: США / Appian Way, Double Feature Films, New Regency Pictures
Год выпуска: 2013 г.
Жанр: триллер, драма, криминал
Продолжительность: 01:31:31-Мировая премьера: 18 сентября 2013
Российская премьера: 26 сентября 2013, «Двадцатый Век Фокс СНГ»
Релиз на DVD: 6 февраля 2014, «Двадцатый Век Фокс СНГ»
Релиз на Blu-Ray: 6 февраля 2014, «Двадцатый Век Фокс СНГ»-Перевод: Профессиональный (полное дублирование) [Лицензия]-Режиссер: Брэд Фурман / Brad Furman-В ролях: Бен Аффлек, Джемма Артертон, Дэвид Костабиле, Энтони Маки, Лоуренс Мэйсон, Бен Шварц, Джастин Тимберлейк, Юл Васкес, ...
Роли дублировали: Илья Бледный, Пётр Иващенко, Елена Шульман, Сергей Чихачев, Даниил Эльдаров, ...-Описание:
Чтобы оплачивать учебу в колледже, Ричи погружается в мир азартных игр он-лайн. Когда удача изменяет ему, он отправляется на Коста-Рику, чтобы помериться силами с настоящим асом игрового бизнеса. Тот видит в Ричи родственную душу и вводит его в свою игру. Но когда степень опасности возрастает, а ставки достигают невероятных высот, Ричи вдруг отчетливо понимает, что его новый босс вот-вот совершит непоправимое, и пытается поменяться с ним ролями.-Качество видео: HDRip
Контейнер: AVI
Видео кодек: XviD
Аудио кодек: AC-3
Видео: MPEG-4 Visual at 1870 Кбит/сек: 720 x 304 (2.368) at 23.976 fps, 0.356 bit/pixel
Аудио: AC-3 at 384 Кбит/сек: 6 каналов, 48,0 КГц
Cубтитры: Отсутствуют.
- -

Media Info

Общее
Полное имя                               : E:\РАЗДАЧА\Films\Va-bank.2013_HDRip_r5_[pirat.ca].avi
Формат                                   : AVI
Формат/Информация                        : Audio Video Interleave
Размер файла                             : 1,45 Гбайт
Продолжительность                        : 1 ч. 31 м.
Общий поток                              : 2263 Кбит/сек
Программа кодирования                    : VirtualDubMod 1.5.10.2 (build 2540/release)
Библиотека кодирования                   : VirtualDubMod build 2540/release
Видео
Идентификатор                            : 0
Формат                                   : MPEG-4 Visual
Профиль формата                          : Advanced [email protected]
Параметр BVOP формата                    : 1
Параметр QPel формата                    : Нет
Параметр GMC формата                     : Без точки перехода
Параметр матрицы формата                 : Выборочная
Идентификатор кодека                     : XVID
Идентификатор кодека/Подсказка           : XviD
Продолжительность                        : 1 ч. 31 м.
Битрейт                                  : 1870 Кбит/сек
Ширина                                   : 720 пикселей
Высота                                   : 304 пикселя
Соотношение сторон                       : 2,35:1
Частота кадров                           : 23,976 кадра/сек
Цветовое пространство                    : YUV
Субдискретизация насыщенности            : 4:2:0
Битовая глубина                          : 8 бит
Тип развёртки                            : Прогрессивная
Метод сжатия                             : С потерями
Бит/(Пиксели*Кадры)                      : 0.356
Размер потока                            : 1,20 Гбайт (83%)
Библиотека кодирования                   : XviD 73
Аудио
Идентификатор                            : 1
Формат                                   : AC-3
Формат/Информация                        : Audio Coding 3
Расширение режима                        : CM (complete main)
Параметр Endianness формата              : Big
Идентификатор кодека                     : 2000
Продолжительность                        : 1 ч. 31 м.
Вид битрейта                             : Постоянный
Битрейт                                  : 384 Кбит/сек
Каналы                                   : 6 каналов
Расположение каналов                     : Front: L C R, Side: L R, LFE
Частота                                  : 48,0 КГц
Битовая глубина                          : 16 бит
Метод сжатия                             : С потерями
Размер потока                            : 251 Мбайт (17%)
Выравнивание                             : Разделение по промежуткам
Продолжительность промежутка             : 42  мс. (1,00 видеокадр)
Время предзагрузки промежутка            : 500  мс.

Скриншот с названием фильма

Скриншоты

--
Яндекс.Метрика
Рейтинг@Mail.ru