Лига справедливости: Война / Justice League: War (Джей Олива / Jay Oliva) [2014 г., мультфильм, фантастика, фэнтези, боевик, приключения, WEB-DLRip] VO [Hronos] + Original (Eng)

 

Создавать темы 27-Янв-2014 10:59

-Лига справедливости: Война / Justice League: War-- Производство: США / DC Comics, DC Entertainment, Warner Bros. Animation
Год выпуска: 2014 г.
Жанр: мультфильм, фантастика, фэнтези, боевик, приключения
Продолжительность: 01:19:24--Мировая премьера: 4 февраля 2014--Перевод: Любительский (одноголосый, закадровый) [Hronos]
Оригинальный аудиопоток: английский-Режиссер: Джей Олива / Jay Oliva--Описание: Мультфильм повествует о начале возникновения Лиги справедливости. В Готэм-сити загадочным образом исчезают люди, в этом винят Бэтмена. Люди считают, что он похищает людей и пьет их кровь. Зеленый Фонарь, дабы покарать виновника похищения, направляется в Готем и встречает там Бэтмена, но под личиной летучей мыши оказывается инопланетный высокотехнологичный робот. Фонарь и настоящий Бэтмен объединяются для борьбы с роботом, который заложил какой-то предмет в канализации города. Как выясняется позже эти штуки есть ничто иное как кротовые норы (порталы для перемещения между измерениями) для вторжения.-- --Качество видео: WEB-DLRip
Контейнер: AVI
Видео кодек: XviD
Аудио кодек: MP3/AC3
Видео: 720x400 (1.80:1), 23.976 fps, XviD build 50 ~1950 kbps avg, 0.28 bit/pixel
Аудио 1: 48 kHz, MPEG Layer 3, 2 ch, ~128.00 kbps avg RUS
Аудио 2: 48 kHz, AC3 Dolby Digital, 3/2 (L,C,R,l,r) + LFE ch, ~384 kbps ENG
Cубтитры: отсутствуют

Media Info

Общее
Полное имя : H:\Torrent2\Justice.League.War.2014.L1.1400MB.WEBDLRip_[pirat.ca].avi
Формат : AVI
Формат/Информация : Audio Video Interleave
Размер файла : 1,37 Гбайт
Продолжительность : 1 ч. 19 м.
Общий поток : 2475 Кбит/сек
Программа кодирования : VirtualDubMod 1.5.10.2 (build 2542/release)
Библиотека кодирования : VirtualDubMod build 2542/release
Видео
Идентификатор : 0
Формат : MPEG-4 Visual
Профиль формата : Advanced [email protected]
Параметр BVOP формата : 2
Параметр QPel формата : Нет
Параметр GMC формата : Без точки перехода
Параметр матрицы формата : Default (H.263)
Идентификатор кодека : XVID
Идентификатор кодека/Подсказка : XviD
Продолжительность : 1 ч. 19 м.
Битрейт : 1950 Кбит/сек
Ширина : 720 пикселей
Высота : 400 пикселей
Соотношение сторон : 16:9
Частота кадров : 23,976 кадра/сек
Цветовое пространство : YUV
Субдискретизация насыщенности : 4:2:0
Битовая глубина : 8 бит
Тип развёртки : Прогрессивная
Метод сжатия : С потерями
Бит/(Пиксели*Кадры) : 0.282
Размер потока : 1,08 Гбайт (79%)
Библиотека кодирования : XviD 1.2.1 (UTC 2008-12-04)
Аудио #1
Идентификатор : 1
Формат : MPEG Audio
Версия формата : Version 1
Профиль формата : Layer 3
Режим : Joint stereo
Расширение режима : MS Stereo
Идентификатор кодека : 55
Идентификатор кодека/Подсказка : MP3
Продолжительность : 1 ч. 19 м.
Вид битрейта : Постоянный
Битрейт : 128 Кбит/сек
Каналы : 2 канала
Частота : 48,0 КГц
Метод сжатия : С потерями
Размер потока : 72,7 Мбайт (5%)
Выравнивание : Соединение по промежуткам
Продолжительность промежутка : 42 мс. (1,00 видеокадр)
Время предзагрузки промежутка : 504 мс.
Библиотека кодирования : LAME3.99.5
Аудио #2
Идентификатор : 2
Формат : AC-3
Формат/Информация : Audio Coding 3
Расширение режима : CM (complete main)
Параметр Endianness формата : Big
Идентификатор кодека : 2000
Продолжительность : 1 ч. 19 м.
Вид битрейта : Постоянный
Битрейт : 384 Кбит/сек
Каналы : 6 каналов
Расположение каналов : Front: L C R, Side: L R, LFE
Частота : 48,0 КГц
Битовая глубина : 16 бит
Метод сжатия : С потерями
Размер потока : 218 Мбайт (16%)
Выравнивание : Разделение по промежуткам
Продолжительность промежутка : 42 мс. (1,00 видеокадр)
Время предзагрузки промежутка : 500 мс.

Скриншоты

Трейлер
Яндекс.Метрика
Рейтинг@Mail.ru