[ Сегодня на трекере фрилич! Идет свободное скачивание без начисления Download ]

7 главных желаний (Вадим Соколовский) [2013 г., мелодрама, комедия, DVDRip]

 

Создавать темы 26-Янв-2014 03:06

--7 главных желаний--«Осторожно – мечты сбываются!»-- Производство: Россия, Rock Films
Режиссер: Вадим Соколовский
Жанр: мелодрама, комедия
Год выпуска: 2013 г.
Продолжительность: 01:17:24--Российская премьера: 5 декабря 2013, «Парадиз»
Релиз на DVD: 21 января 2014, «CD Land»--В ролях: Юлия Козырева, Антон Макарский, Игорь Петренко, Ирина Пегова, Екатерина Климова, Людмила Чурсина, Наталья Суркова, Геннадий Смирнов, Агнетта Ойеволе, Александр Коробков--Описание: Мы мечтаем о многом, но чего же хотим на самом деле? Это предстоит узнать Маше, в руки которой в канун Нового года попала волшебная птичка, готовая исполнить её семь самых заветных желаний. Маша отправляется на поиски своей мечты и проходит через множество чудесных превращений. Но принесёт ли счастье та жизнь, о которой она грезит? А может, настоящий принц совсем рядом?-- --Трейлер--Качество видео: DVDRip
Контейнер: AVI
Видео кодек: XviD
Аудио кодек: AC3
Видео: 720x304 (2.37:1), 25 fps, XviD build 50 ~2069 kbps avg, 0.38 bit/pixel
Аудио: 48 kHz, AC3 Dolby Digital, 3/2 (L,C,R,l,r) + LFE ch, ~448 kbps
Cубтитры: Отсутствуют

Media Info

Общее
Полное имя : H:\Torrent2\7.Glavnyh.Jelaniy.2013.O.DVDRip.1400MB_[pirat.ca].avi
Формат : AVI
Формат/Информация : Audio Video Interleave
Размер файла : 1,37 Гбайт
Продолжительность : 1 ч. 17 м.
Общий поток : 2528 Кбит/сек
Программа кодирования : VirtualDubMod 1.5.10.2 (build 2540/release)
Библиотека кодирования : VirtualDubMod build 2540/release
Видео
Идентификатор : 0
Формат : MPEG-4 Visual
Профиль формата : Advanced [email protected]
Параметр BVOP формата : 2
Параметр QPel формата : Нет
Параметр GMC формата : Без точки перехода
Параметр матрицы формата : Default (MPEG)
Идентификатор кодека : XVID
Идентификатор кодека/Подсказка : XviD
Продолжительность : 1 ч. 17 м.
Битрейт : 2070 Кбит/сек
Ширина : 720 пикселей
Высота : 304 пикселя
Соотношение сторон : 2,35:1
Частота кадров : 25,000 кадров/сек
Цветовое пространство : YUV
Субдискретизация насыщенности : 4:2:0
Битовая глубина : 8 бит
Тип развёртки : Прогрессивная
Метод сжатия : С потерями
Бит/(Пиксели*Кадры) : 0.378
Размер потока : 1,12 Гбайт (82%)
Библиотека кодирования : XviD 1.2.1 (UTC 2008-12-04)
Аудио
Идентификатор : 1
Формат : AC-3
Формат/Информация : Audio Coding 3
Расширение режима : CM (complete main)
Параметр Endianness формата : Big
Идентификатор кодека : 2000
Продолжительность : 1 ч. 17 м.
Вид битрейта : Постоянный
Битрейт : 448 Кбит/сек
Каналы : 6 каналов
Расположение каналов : Front: L C R, Side: L R, LFE
Частота : 48,0 КГц
Битовая глубина : 16 бит
Метод сжатия : С потерями
Размер потока : 248 Мбайт (18%)
Выравнивание : Разделение по промежуткам
Продолжительность промежутка : 40 мс. (1,00 видеокадр)
Время предзагрузки промежутка : 500 мс.

Скриншоты

Создавать темы 31-Янв-2016 14:05 (спустя 2 года)

Топик был перенесен из форума Отечественные Новинки (HD*Rip/LQ, DVDRip) в форум Отечественные Фильмы (HD*Rip/LQ, DVDRip, SATRip, VHSRip)
T_O_M
Яндекс.Метрика
Рейтинг@Mail.ru